2 сезон

iTunes

MVO

1

2 сезон

iTunes

iTunes

1 сезон

RePack

30

Новинка

ВАЖНО

ИГРА 18+

pack

RePack

MK11
pack

Легкие деньги

RePack

jed

RePack

fifa19

RePack

RDR2

RePack

NEED FOR SPEED™ PAYBACK

4 сезон

9 сезон

Бесстыжие 9 сезон

Все сериалы

все сериалы на PB.wtf

RePack

FAR CRY 5

Anonymous, доброй ночи, мы не успеваем собрать деньги на оплату серверов за декабрь и январь, помогите нам пожалуйста в это трудное время. В качестве благодарности мы отключим Вам всю рекламу на сайте (укажите свой ник в строку Ваше имя)!

×
  
Magnet ссылка

Ветреная река / Wind River (Гари Роач) [2017, боевик, триллер, криминал, детектив, HDRip-AVC] [DUB] [Лицензия] - ExKinoRay pb.wtf

Ветреная река через торрент pb.wtf

Раздают: 1 [ 0 KB/s ]
Размер: 2.1 GB | Добавлен: 2 года 9 мес. назад | Торрент скачан:570 раз
Скачать  

05-11-2017 16:03 Ветреная река Скачать торрент  

Информация о фильме
Название: Ветреная река
Оригинальное название: Wind River
Год выпуска: 2017
Жанр: Боевик, триллер, криминал, детектив
Страна: Великобритания, Канада, США
Студия: Acacia Filmed Entertainment, Film 44, Ingenious Media, Savvy Media Holdings, Star Thrower Entertainment
Продолжительность: 01:46:47
Перевод: Дублированный | Лицензия
Субтитры: Русские, английские
Режиссер: Тейлор Шеридан
В ролях: Джереми Реннер, Элизабет Олсен, Джон Бернтал, Келси Чоу, Джулия Джонс, Тео Брионес, Апесанахкват, Грэм Грин, Танту Кардинал, Эрик Ланж, Джил Бирмингем

Описание:
В пустыне на территории индейской резервации «Ветреная река» егерь Кори Ламберт находит изувеченное тело молодой девушки. Опытный охотник с трагическим прошлым, он берется помочь в расследовании этого дела агенту ФБР Джейн Бэннер, которая оказывается в мире, полном загадок и насилия. Но смогут ли они противостоять зловещим силам этих мест, где сама природа пропитана горечью и жаждой мщения?..

rating

Файл
Формат: MKV
Качество: HDRip-AVC
Видео: MPEG-4 AVC, 1024x428 (2.40:1), 1920 Kbit/s, 23.976 fps, 0,183 bpp
Звук:
Аудио 1: 48 kHz, AC3, 5.1 ch, 448 Kbps | RUS
Аудио 2: 48 kHz, AC3, 5.1 ch, 448 Kbps | ENG

Навигация по главам: есть
General
Unique ID : 246538606458602357461622487040460649996 (0xB9799BC434AC85E3B1AE8BC95A24F60C)
Complete name : D:\Wind.River.2017.HDRip.AVC.ExKinoRay.mkv
Format : Matroska
Format version : Version 2
File size : 2.10 GiB
Duration : 1 h 46 min
Overall bit rate : 2 814 kb/s
Movie name : Wind River 2017 from ExKinoRay
Encoded date : UTC 2018-03-18 22:10:05
Writing application : mkvmerge v5.6.0 ('Kenya Kane') built on May 27 2012 16:44:04
Writing library : libebml v1.2.3 + libmatroska v1.3.0

Video
ID : 1
Format : AVC
Format/Info : Advanced Video Codec
Format profile : High@L4.1
Format settings, CABAC : Yes
Format settings, ReFrames : 12 frames
Codec ID : V_MPEG4/ISO/AVC
Duration : 1 h 46 min
Bit rate : 1 920 kb/s
Width : 1 024 pixels
Height : 428 pixels
Display aspect ratio : 2.40:1
Frame rate mode : Constant
Frame rate : 23.976 (23976/1000) FPS
Color space : YUV
Chroma subsampling : 4:2:0
Bit depth : 8 bits
Scan type : Progressive
Bits/(Pixel*Frame) : 0.183
Stream size : 1.39 GiB (66%)
Title : Enigma
Writing library : x264 core 152 r2851 ba24899
Encoding settings : cabac=1 / ref=12 / deblock=1:-2:-2 / analyse=0x3:0x113 / me=umh / subme=10 / psy=1 / psy_rd=1.02:0.07 / mixed_ref=1 / me_range=32 / chroma_me=1 / trellis=2 / 8x8dct=1 / cqm=0 / deadzone=21,11 / fast_pskip=1 / chroma_qp_offset=-3 / threads=12 / lookahead_threads=3 / sliced_threads=0 / nr=0 / decimate=0 / interlaced=0 / bluray_compat=0 / constrained_intra=0 / bframes=10 / b_pyramid=2 / b_adapt=2 / b_bias=0 / direct=3 / weightb=1 / open_gop=0 / weightp=2 / keyint=240 / keyint_min=23 / scenecut=40 / intra_refresh=0 / rc_lookahead=40 / rc=2pass / mbtree=0 / bitrate=1920 / ratetol=1.0 / qcomp=0.60 / qpmin=0 / qpmax=51 / qpstep=4 / cplxblur=20.0 / qblur=0.5 / vbv_maxrate=50000 / vbv_bufsize=62500 / nal_hrd=none / filler=0 / ip_ratio=1.40 / pb_ratio=1.30 / aq=2:0.90
Language : English
Default : Yes
Forced : No
Color range : Limited
Color primaries : BT.709
Transfer characteristics : BT.709
Matrix coefficients : BT.709

Audio #1
ID : 2
Format : AC-3
Format/Info : Audio Coding 3
Mode extension : CM (complete main)
Format settings, Endianness : Big
Codec ID : A_AC3
Duration : 1 h 46 min
Bit rate mode : Constant
Bit rate : 448 kb/s
Channel(s) : 6 channels
Channel positions : Front: L C R, Side: L R, LFE
Sampling rate : 48.0 kHz
Frame rate : 31.250 FPS (1536 spf)
Compression mode : Lossy
Stream size : 342 MiB (16%)
Title : Dub (Лицензия)
Language : Russian
Default : Yes
Forced : No

Audio #2
ID : 3
Format : AC-3
Format/Info : Audio Coding 3
Mode extension : CM (complete main)
Format settings, Endianness : Big
Codec ID : A_AC3
Duration : 1 h 46 min
Bit rate mode : Constant
Bit rate : 448 kb/s
Channel(s) : 6 channels
Channel positions : Front: L C R, Side: L R, LFE
Sampling rate : 48.0 kHz
Frame rate : 31.250 FPS (1536 spf)
Compression mode : Lossy
Stream size : 342 MiB (16%)
Language : English
Default : No
Forced : No

Text #1
ID : 4
Format : UTF-8
Codec ID : S_TEXT/UTF8
Codec ID/Info : UTF-8 Plain Text
Language : Russian
Default : No
Forced : No

Text #2
ID : 5
Format : UTF-8
Codec ID : S_TEXT/UTF8
Codec ID/Info : UTF-8 Plain Text
Language : English
Default : No
Forced : No

Menu
00:00:00.000 : en:00:00:00.000
00:06:01.695 : en:00:06:01.695
00:10:42.433 : en:00:10:42.433
00:14:55.394 : en:00:14:55.394
00:19:18.741 : en:00:19:18.741
00:25:52.342 : en:00:25:52.342
00:32:02.921 : en:00:32:02.921
00:37:13.481 : en:00:37:13.481
00:43:34.529 : en:00:43:34.529
00:52:17.259 : en:00:52:17.259
01:00:22.536 : en:01:00:22.536
01:07:09.484 : en:01:07:09.484
01:10:57.920 : en:01:10:57.920
01:18:39.590 : en:01:18:39.590
01:23:46.104 : en:01:23:46.104
01:31:00.538 : en:01:31:00.538
01:36:46.592 : en:01:36:46.592
01:39:41.642 : en:01:39:41.642
Релиз от:

Автор релиза: pb.wtf



Скачать Ветреная река через торрент http://s018.radikal.ru/i514/1710/a9/46d19a7f800f.jpg Скачать фильм Ветреная река через торрент бесплантно в хорошем качестве Описание:В пустыне на территории индейской резервации «Ветреная река» егерь Кори Ламберт находит изувеченное тело молодой девушки. Опытный ... 9.7 10 42
Info! Золотая раздача, скачанное не засчитывается.
Торрент: Зарегистрирован [2018-03-18 22:39] · скачан: 570 раз
Статус: √ проверено
Размер: 2.1 GB
Как cкачать? Как скачать Ветреная река через торрент | UTorrent

% Раздел Тема Автор DL S | L
Фильмы 2017 [DVDrip, WEB-DLRip, HDrip] (DUB, MVO) [ 1.75 GB ] Ветреная река / Wind River [2017 WEB-DLRip-AVC] - ExKinoRay Enigma2010 Скачать
2 | 0


Последний раз редактировалось: Enigma2010 (2018-03-18 22:39), всего редактировалось 2 раз(а)

28-11-2019 20:33  

Отключить всю рекламу на сайте

06-11-2017 22:38 Ветреная река Скачать торрент  

Как фильм, хороший?pb.wtf



07-11-2017 08:26 Ветреная река Скачать торрент  

ФИльм хороший советуюpb.wtf



08-11-2017 00:17 Ветреная река Скачать торрент  

Отличный фильм, рекомендую. Автору Спасибо за релиз.pb.wtf



09-11-2017 07:59 Ветреная река Скачать торрент  

Спасибо за отзывы, заценимpb.wtf



09-11-2017 08:40 Ветреная река Скачать торрент  

Спасибо, посмотрим!pb.wtf



10-11-2017 09:27 Ветреная река Скачать торрент  

Добротное кино. по десятибальной 11. Советую.pb.wtf



13-11-2017 14:43 Ветреная река Скачать торрент  

Редко пишу отзывы, но этот фильм зацепил. Лучший в 2017 годуpb.wtf



18-03-2018 22:40 Ветреная река Скачать торрент  

Замена на лицензию.pb.wtf



21-03-2018 20:57 Ветреная река Скачать торрент  

Спасибо за раздачу и тем, кто отписался!
Согласитесь без комментариев скучно. pb.wtf



    Дорогой пользователь! Огромная просьба, поблагодарите релизера, оцените раздачу и оставьте свои комментарий, если Вы скачали Ветреная река через торрент бесплатно! Внесите свою лепту в развитие PiratBit!
    Комментировать посты могут только пользователи прошедшие не сложную регистрацию
    Показать сообщения:    

    Ветреная река через торрент
    Скачать бесплатно Ветреная река
    Ветреная река скачать торрент
    Ветреная река смотреть онлайн
    Cкачать фильм Ветреная река бесплатно
    Ветреная река скачать торрент в хорошем качестве
    Ветреная река смотреть онлайн бесплатно в хорошем качестве


    Вы не можете начинать темы
    Вы не можете отвечать на сообщения
    Вы не можете редактировать свои сообщения
    Вы не можете удалять свои сообщения
    Вы не можете голосовать в опросах
    Вы не можете прикреплять файлы к сообщениям
    Вы можете скачивать файлы