Ссылка на приватное зеркало нашего сайта всего за 1$. Внимание количество ограничено!!!

2 сезон

iTunes

1 сезон

1

iTunes

iTunes

iTunes

1 сезон

RePack

30

ИГРА 18+

pack

ВАЖНО

!!Акция!!

Alien_RageХит недели

RePack

MK11
pack

Забери бонус

RePack

jed

!!Акция!!

Alien_Rage

RePack

fifa19

RePack

Assassins Creed: Odyssey

RePack

NEED FOR SPEED™ PAYBACK

4 сезон

9 сезон

Бесстыжие 9 сезон

Все сериалы

все сериалы на PB.wtf

RePack

FAR CRY 5
  

Демон революции / Сезон: 1 / Серии 1-3 из 3 (Владимир Хотиненко ) [2017 г., Россия, Драма, исторический, WEB-DL 720p] pb.wtf

Демон революции через торрент pb.wtf

Размер: 6.69 GB | Добавлен: 2 года 11 мес. назад | Торрент скачан:97 раз
Скачать  

06-11-2017 00:24 Демон революции Скачать торрент  

Демон революции
  • Год выпуска: 2017
  • Страна: Россия
  • Жанр: Драма, исторический
  • Продолжительность: ~ 01:40:00 (Серия)
  • Перевод: Не требуется
  • Режиссер: Владимир Хотиненко

  • В ролях:
    Евгений Миронов, Фёдор Бондарчук, Дарья Екамасова, Виктория Исакова, Паулина Андреева, Максим Матвеев, Александр Балуев, Юрий Маслак, Дмитрий Лысенков, Филипп Рейнхардт, Арсений Сидоров, Юрий Уткин, Данил Лавренов, Георгий Фетисов, Алексей Красненков, Александр Андриенко, Игорь Кулачко



  • Фильм расскажет о событиях 100-летней давности, которые кардинальным образом повлияли на ход нашей истории. 1915 год. Европа охвачена огнем Первой мировой войны. В это время теоретик революции, политический эмигрант и авантюрист Александр Парвус проводит переговоры с министром иностранных дел Германии, Готлибом фон Яговом. Переговоры заканчиваются неожиданным успехом. Немецкое правительство выделяет лично Парвусу «немалые деньги», которые должны пойти на революцию в России. С этого начинается история, которая расскажет не только о жизни этого незаурядного человека и его роли в исторических событиях, завершившихся в октябре 1917 года. Столь же значимыми героями фильма станут Владимир Ильич Ленин, успевший благодаря усилиям Парвуса вовремя вернуться в Россию, чтобы возглавить революцию, а также агент императорской контрразведки Алексей Мезенцев, рискующий жизнью ради того, чтобы предотвратить неизбежный конец одной эпохи и начало новой.
  • Качество: WEB-DL 720p
  • Формат: : MKV
  • Видео кодек: AVC
  • Аудио кодек: AC-3
  • Видео: 2900 Кбит/сек, 1280*720 (16:9), в 25,000 кадров/сек, AVC
  • Аудио №1: 192 Кбит/сек, 48,0 КГц, 16 бит, 2 канала, AC-3
  • Релиз: Files-x


    Внимание! Раздача ведётся путём добавления новых серий; при каждом добавлении создаётся новый торрент. Чтобы начать докачку новой серии, пользователям необходимо сделать следующее:
    (1) остановить скачивание,
    (2) удалить старый торрент у себя из клиента (старые серии удалять не надо),
    (3) скачать новый торрент и запустить его у себя в клиенте вместо старого, при этом указать клиенту путь в старую папку куда и должно происходить скачивание новых серий.
    Ваш клиент при этом должен произвести хеширование (проверку) старой папки (если не производит сам - помогите ему сделать это), и будет докачивать только те серии которых у вас ещё нет. Старые серии при этом не удаляются, а продолжают раздаваться!
    Eсли вы уже удалили старые серии, то предотвратить повторную закачку старых серий можно, отжав галочку в соответствующих местах при запуске нового торрента. По возможности, желательно не удалять старые серии как можно дольше чтобы релизёр не столько продолжал раздавать старые серии, а смог сконцентрироваться на новых.
    Общее
    Уникальный идентификатор : 198084518545646793345241745950178309197 (0x9505B0C9C353AF67982ECBA80FA8744D)
    Полное имя : F:\Demon.revolyucii.2017.WEB-DL 720p. Files-x\01. Demon.revolyucii.2017.WEB-DL 720p. Files-x.mkv
    Формат : Matroska
    Версия формата : Version 2
    Размер файла : 2,24 Гбайт
    Продолжительность : 1 ч. 41 м.
    Общий поток : 3154 Кбит/сек
    Дата кодирования : UTC 2017-11-05 21:28:59
    Программа кодирования : mkvmerge v7.8.0 ('River Man') 32bit built on Apr 3 2015 12:11:22
    Библиотека кодирования : libebml v1.3.1 + libmatroska v1.4.2

    Видео
    Идентификатор : 1
    Формат : AVC
    Формат/Информация : Advanced Video Codec
    Профиль формата : High@L3.1
    Настройки формата : CABAC / 4 Ref Frames
    Параметр CABAC формата : Да
    Параметр RefFrames формата : 4 кадра
    Идентификатор кодека : V_MPEG4/ISO/AVC
    Продолжительность : 1 ч. 41 м.
    Битрейт : 2900 Кбит/сек
    Ширина : 1280 пикселей
    Высота : 720 пикселей
    Соотношение сторон : 16:9
    Режим частоты кадров : Постоянный
    Частота кадров : 25,000 кадров/сек
    Цветовое пространство : YUV
    Субдискретизация насыщенности : 4:2:0
    Битовая глубина : 8 бит
    Тип развёртки : Прогрессивная
    Бит/(Пиксели*Кадры) : 0.126
    Размер потока : 2,06 Гбайт (92%)
    Default : Да
    Forced : Нет

    Аудио
    Идентификатор : 2
    Формат : AC-3
    Формат/Информация : Audio Coding 3
    Идентификатор кодека : A_AC3
    Продолжительность : 1 ч. 41 м.
    Вид битрейта : Постоянный
    Битрейт : 192 Кбит/сек
    Каналы : 2 канала
    Расположение каналов : Front: L R
    Частота : 48,0 КГц
    Частота кадров : 31,250 кадров/сек (1536 SPF)
    Битовая глубина : 16 бит
    Метод сжатия : С потерями
    Размер потока : 139 Мбайт (6%)
    ServiceKind/String : Complete Main
    Default : Да
    Forced : Нет

    Скриншоты:
    скриншот   скриншот   скриншот   скриншот   скриншот   скриншот   скриншот  
    скриншот  

    Раздача ведётся путём добавления новых серий. Добавлена 3 серия (08.10.2017).Просьба перекачать торрент файл.

    pb.wtf



  • Скачать Демон революции через торрент http://pic1.kartinco.top/images/11/4zaee.jpg Скачать фильм Демон революции через торрент бесплантно в хорошем качестве qw.png Фильм расскажет о событиях 100-летней давности, которые кардинальным образом повлияли на ход нашей истории. 1915 год. Европа ... 7.4 10 7
    Info! Золотая раздача, скачанное не засчитывается.
    Торрент: Зарегистрирован [2017-11-07 22:59] · скачан: 97 раз
    Статус: √ проверено
    Размер: 6.69 GB
    Как cкачать? Как скачать Демон революции через торрент | qTorrent

    % Раздел Тема Автор DL S | L
    Наши сериалы [ 4.1 GB ] Демон революции / Сезон: 1 / Серии 1-3 из 3 [2017 Россия исторический WEB-DLRip] GEKADOL Скачать
    1 | 0


    Последний раз редактировалось: GEKADOL (2017-11-07 23:06), всего редактировалось 4 раз(а)

    28-11-2019 20:33  

    Отключить всю рекламу на сайте

    06-11-2017 10:16 Демон революции Скачать торрент  

    благодарочка! ждём следующую серию с нетерпением!pb.wtf



    06-11-2017 23:24 Демон революции Скачать торрент  

    ROBOCOP писал(а):

    благодарочка! ждём следующую серию с нетерпением!

    pb.wtf



      Дорогой пользователь! Огромная просьба, поблагодарите релизера, оцените раздачу и оставьте свои комментарий, если Вы скачали Демон революции через торрент бесплатно! Внесите свою лепту в развитие PiratBit!
      Комментировать посты могут только пользователи прошедшие не сложную регистрацию
      Показать сообщения:    

      Демон революции через торрент
      Скачать бесплатно Демон революции
      Демон революции скачать торрент
      Демон революции смотреть онлайн
      Cкачать фильм Демон революции бесплатно
      Демон революции скачать торрент в хорошем качестве
      Демон революции смотреть онлайн бесплатно в хорошем качестве


      Вы не можете начинать темы
      Вы не можете отвечать на сообщения
      Вы не можете редактировать свои сообщения
      Вы не можете удалять свои сообщения
      Вы не можете голосовать в опросах
      Вы не можете прикреплять файлы к сообщениям
      Вы можете скачивать файлы