2 сезон

iTunes

1 сезон

1

iTunes

iTunes

iTunes

1 сезон

RePack

30

ИГРА 18+

pack

ВАЖНО

!!Акция!!

Alien_RageХит недели

RePack

MK11
pack

Забери бонус

RePack

jed

!!Акция!!

Alien_Rage

RePack

fifa19

RePack

Assassins Creed: Odyssey

RePack

NEED FOR SPEED™ PAYBACK

4 сезон

9 сезон

Бесстыжие 9 сезон

Все сериалы

все сериалы на PB.wtf

RePack

FAR CRY 5
  

Официант / Garcon! (Клод Соте) [1983, драма, мелодрама, комедия, BDRip 1080p by msltel] MVO pb.wtf

Официант через торрент pb.wtf

Размер: 12.17 GB | Добавлен: 2 года 11 мес. назад | Торрент скачан:7 раз
Скачать  

06-11-2017 06:09 Официант Скачать торрент  

Название: Официант
Оригинальное название: Garcon!
Год выпуска: 1983
Страна: Франция
Жанр: драма, мелодрама, комедия
Продолжительность: 01:31:56
Перевод: профессиональный многоголосый

Режиссер: Клод Соте
В ролях: Ив Монтан, Николь Гарсиа, Жак Вильре, Рози Варт, Мари Дюбуа, Доминик Лаффен, Пьер-Лу Ражо, Жан-Клод Буйо, Ник Фогель, Бернар Фрессон, Анник Алан, Клементин Селарье, Вивьян Блассель, Ив Робер, Джеральд Калдерон, Юбер Дешан, Жорж Клэсс, Дженни Астрюк, Генри Женес, Серж Берри, Карло Нелл, Бенуа Серр, Симон де Ла Бросс, Жан Амос, Кристель Лабод, Андре Шамо, Кристиан Колин, Франсуа Сьенер

О фильме: Алекс недавно ушёл от жены с пустыми руками, но это не сломило его. Он работает официантом, пытается найти средства на создание парка развлечений и пользуется большой популярностью у женщин. Когда в его жизни появляется новая возлюбленная, у Алекса возникает мощный стимул показать, на что он способен...



Качество: BDRip 1080p
Формат: MKV
Видео: MPEG-4 AVC, 17.8 Mбит/сек, 1792х1080
Аудио 1: русский, AC3, 384 kbps, 2 ch. 48 kHz [профессиональный многоголосый]
Аудио 2: французский, DTS, 768 kbps, 2 ch, 48 kHz [оригинал]
Субтитры 1: русские
Субтитры 2: английские
Неименованные главы/чаптеры.
Общее
Уникальный идентификатор : 196646530918735668440801584819781031265 (0x93F0BE8639DBAA8F87EB8D5BD4C4D561)
Полное имя : D:\Video\Официант.1983.BDRip.1080p by msltel.mkv
Формат : Matroska
Версия формата : Version 4 / Version 2
Размер файла : 12,2 Гбайт
Продолжительность : 1 ч. 31 м.
Общий поток : 19,0 Мбит/сек
Название фильма : Rip by msltel
Дата кодирования : UTC 2017-11-05 13:28:04
Программа кодирования : mkvmerge v8.2.0 ('World of Adventure') 64bit
Библиотека кодирования : libebml v1.3.1 + libmatroska v1.4.2

Видео
Идентификатор : 1
Формат : AVC
Формат/Информация : Advanced Video Codec
Профиль формата : High@L4.1
Настройки формата : CABAC / 4 Ref Frames
Параметр CABAC формата : Да
Параметр RefFrames формата : 4 кадра
Идентификатор кодека : V_MPEG4/ISO/AVC
Продолжительность : 1 ч. 31 м.
Битрейт : 17,8 Мбит/сек
Ширина : 1792 пикселя
Высота : 1080 пикселей
Соотношение сторон : 5:3
Режим частоты кадров : Постоянный
Частота кадров : 23,976 (24000/1001) кадра/сек
Цветовое пространство : YUV
Субдискретизация насыщенности : 4:2:0
Битовая глубина : 8 бит
Тип развёртки : Прогрессивная
Бит/(Пиксели*Кадры) : 0.384
Размер потока : 11,4 Гбайт (94%)
Библиотека кодирования : x264 core 146 r2538 121396c
Настройки программы : cabac=1 / ref=4 / deblock=1:-3:-2 / analyse=0x3:0x113 / me=umh / subme=11 / psy=1 / psy_rd=1.00:0.15 / mixed_ref=1 / me_range=32 / chroma_me=1 / trellis=2 / 8x8dct=1 / cqm=0 / deadzone=21,11 / fast_pskip=0 / chroma_qp_offset=-3 / threads=6 / lookahead_threads=1 / sliced_threads=0 / nr=0 / decimate=1 / interlaced=0 / bluray_compat=0 / constrained_intra=0 / bframes=9 / b_pyramid=2 / b_adapt=2 / b_bias=0 / direct=1 / weightb=1 / open_gop=0 / weightp=2 / keyint=230 / keyint_min=23 / scenecut=40 / intra_refresh=0 / rc_lookahead=40 / rc=crf / mbtree=0 / crf=20.9 / qcomp=0.60 / qpmin=0 / qpmax=69 / qpstep=4 / vbv_maxrate=62500 / vbv_bufsize=78125 / crf_max=0.0 / nal_hrd=none / filler=0 / ip_ratio=1.40 / pb_ratio=1.30 / aq=1:1.00
Язык : French
Default : Да
Forced : Нет

Аудио #1
Идентификатор : 2
Формат : AC-3
Формат/Информация : Audio Coding 3
Идентификатор кодека : A_AC3
Продолжительность : 1 ч. 31 м.
Вид битрейта : Постоянный
Битрейт : 384 Кбит/сек
Каналы : 2 канала
Расположение каналов : Front: L R
Частота : 48,0 КГц
Частота кадров : 31,250 кадров/сек (1536 SPF)
Битовая глубина : 16 бит
Метод сжатия : С потерями
Размер потока : 253 Мбайт (2%)
Заголовок : MVO
Язык : Russian
ServiceKind/String : Complete Main
Default : Да
Forced : Нет

Аудио #2
Идентификатор : 3
Формат : DTS
Формат/Информация : Digital Theater Systems
Идентификатор кодека : A_DTS
Продолжительность : 1 ч. 31 м.
Вид битрейта : Постоянный
Битрейт : 768 Кбит/сек
Каналы : 2 канала
Расположение каналов : Front: L R
Частота : 48,0 КГц
Частота кадров : 93,750 кадра/сек (512 SPF)
Битовая глубина : 24 бит
Метод сжатия : С потерями
Размер потока : 505 Мбайт (4%)
Заголовок : original
Язык : French
Default : Нет
Forced : Нет

Текст #1
Идентификатор : 4
Формат : UTF-8
Идентификатор кодека : S_TEXT/UTF8
Идентификатор кодека/Информация : UTF-8 Plain Text
Продолжительность : 1 ч. 29 м.
Битрейт : 109 бит/сек
ElementCount : 1325
Размер потока : 72,1 Кбайт (0%)
Заголовок : русские
Язык : Russian
Default : Нет
Forced : Нет

Текст #2
Идентификатор : 5
Формат : UTF-8
Идентификатор кодека : S_TEXT/UTF8
Идентификатор кодека/Информация : UTF-8 Plain Text
Продолжительность : 1 ч. 31 м.
Битрейт : 47 бит/сек
ElementCount : 1226
Размер потока : 32,0 Кбайт (0%)
Заголовок : английские
Язык : English
Default : Нет
Forced : Нет

Меню
00:00:00.000 : :Chapter 01
00:06:00.485 : :Chapter 02
00:15:46.903 : :Chapter 03
00:25:26.732 : :Chapter 04
00:36:30.313 : :Chapter 05
00:44:23.827 : :Chapter 06
00:50:06.877 : :Chapter 07
00:59:16.135 : :Chapter 08
01:03:57.916 : :Chapter 09
01:14:29.506 : :Chapter 10
01:20:53.555 : :Chapter 11
01:30:20.122 : :Chapter 12
01:31:55.885 : :Chapter 13
pb.wtf



Скачать Официант через торрент http://s009.radikal.ru/i307/1711/94/53b8b60075dc.jpg Скачать фильм Официант через торрент бесплантно в хорошем качестве О фильме: Алекс недавно ушёл от жены с пустыми руками, но это не сломило его. Он работает официантом, пытается найти средства на создание ... 10 10 1
Info! Золотая раздача, скачанное не засчитывается.
Торрент: Зарегистрирован [2017-11-06 06:09] · скачан: 7 раз
Статус: √ проверено
Размер: 12.17 GB
Как cкачать? Как скачать Официант через торрент | qTorrent

% Раздел Тема Автор DL S | L
Фильмы [HD 720p, 1080p] (Хороший звук DUB, MVO) [ 4.37 GB ] Официант / Garcon! [1983 BDRip 720p by msltel] MVO msltel Скачать
1 | 0

28-11-2019 20:33  

Отключить всю рекламу на сайте

    Дорогой пользователь! Огромная просьба, поблагодарите релизера, оцените раздачу и оставьте свои комментарий, если Вы скачали Официант через торрент бесплатно! Внесите свою лепту в развитие PiratBit!
    Комментировать посты могут только пользователи прошедшие не сложную регистрацию
    Показать сообщения:    

    Официант через торрент
    Скачать бесплатно Официант
    Официант скачать торрент
    Официант смотреть онлайн
    Cкачать фильм Официант бесплатно
    Официант скачать торрент в хорошем качестве
    Официант смотреть онлайн бесплатно в хорошем качестве


    Вы не можете начинать темы
    Вы не можете отвечать на сообщения
    Вы не можете редактировать свои сообщения
    Вы не можете удалять свои сообщения
    Вы не можете голосовать в опросах
    Вы не можете прикреплять файлы к сообщениям
    Вы можете скачивать файлы