Ссылка на приватное зеркало нашего сайта всего за 1$. Внимание количество ограничено!!!

2 сезон

iTunes

1 сезон

1

iTunes

iTunes

iTunes

1 сезон

RePack

30

ИГРА 18+

pack

ВАЖНО

!!Акция!!

Alien_RageХит недели

RePack

MK11
pack

Забери бонус

RePack

jed

!!Акция!!

Alien_Rage

RePack

fifa19

RePack

Assassins Creed: Odyssey

RePack

NEED FOR SPEED™ PAYBACK

4 сезон

9 сезон

Бесстыжие 9 сезон

Все сериалы

все сериалы на PB.wtf

RePack

FAR CRY 5
  

Короткое слово Нет / Сезон 1 / Серии 1-12 из 12 (Сергей Щербин) [2017, криминал, мелодрама, приключения, WEB-DL 1080p] pb.wtf

Короткое слово Нет через торрент pb.wtf

Раздают: 1 [ 844 KB/s ]
Размер: 10.96 GB | Добавлен: 2 года 11 мес. назад | Торрент скачан:139 раз
Скачать  

06-11-2017 09:08 Короткое слово Нет Скачать торрент  

Короткое слово Нет
Год выпуска: 2017
Страна: Украина
Жанр: криминал, мелодрама, приключения
Всего серий: 12
Продолжительность: 12 x ~ 00:45:00
Перевод: Не требуется
Субтитры: отсутствуют

Режиссер: Сергей Щербин



В ролях:

Дмитрий Белякин, Марина Митрофанова, Вера Шпак, Ян Цапник, Станислав Боклан, Максим Дахненко, Виталий Салий, Дмитрий Сова, Олег Коркушко, Павел Алдошин, Сергей Воляновский, Демьян Шиян, Тарас Цимбалюк, Владимир Гончаров (II), Дарья Легейда, Алексей Вертинский

Описание:

Они из разных миров. Тата – студентка художественной академии, Жека – вор и отчаянный авантюрист. Но эта история - не криминальный боевик или детектив. Это история любви. Настоящей. Такой, которая случается не у всех даже раз в жизни. Но им повезло. Они полюбили. И не повезло. Потому, что были из разных миров. Родители Таты делают все, чтобы разрушить их отношения. По следам Жеки идет полиция. Его арестовывают на глазах у любимой. Пройдут ли влюбленные испытания, которые выпали на их долю? Сохранят ли они свои чувства?

Качество: WEB-DL 1080p
Формат: MKV
Видео кодек: H.264
Аудио кодек: AC3

Видео: 1920x1080 (1.76:1), 25 fps, AVC High@L4.0 ~2.839 Kbps avg, 0.055 bit/pixel
Аудио#1: 44.1 kHz, АС3, 2 ch, (Front: L R) ~192.00 kbps avg
скриншот   скриншот   скриншот   скриншот  

General
Unique ID : 239008744897051792419471234014193778808 (0xB3CF68EDAF01A10D9682BED488C60078)
Complete name : D:\Korotkoe.slovo.Net.2017.WEB-DL.(1080p).Kinozal.by.Olyanchik\01.Korotkoe.slovo.Net.2017.WEB-DL.(1080p).Kinozal.by.Olyanchik.mkv
Format : Matroska
Format version : Version 4 / Version 2
File size : 982 MiB
Duration : 44mn 24s
Overall bit rate : 3 093 Kbps
Encoded date : UTC 2017-11-03 16:52:57
Writing application : mkvmerge v9.6.0 ('Slave To Your Mind') 64bit
Writing library : libebml v1.3.4 + libmatroska v1.4.5
DURATION : 00:44:24.908000000
NUMBER_OF_FRAMES : 76512
NUMBER_OF_BYTES : 63957786
_STATISTICS_WRITING_APP : mkvmerge v9.6.0 ('Slave To Your Mind') 64bit
_STATISTICS_WRITING_DATE_UTC : 2017-11-03 16:52:57
_STATISTICS_TAGS : BPS DURATION NUMBER_OF_FRAMES NUMBER_OF_BYTES

Video
ID : 1
Format : AVC
Format/Info : Advanced Video Codec
Format profile : High@L4.0
Format settings, CABAC : Yes
Format settings, ReFrames : 2 frames
Codec ID : V_MPEG4/ISO/AVC
Duration : 44mn 24s
Bit rate : 2 839 Kbps
Width : 1 920 pixels
Height : 1 080 pixels
Display aspect ratio : 16:9
Frame rate mode : Constant
Frame rate : 25.000 fps
Color space : YUV
Chroma subsampling : 4:2:0
Bit depth : 8 bits
Scan type : Progressive
Bits/(Pixel*Frame) : 0.055
Stream size : 902 MiB (92%)
Default : Yes
Forced : No
Color primaries : BT.709
Transfer characteristics : BT.709
Matrix coefficients : BT.709

Audio
ID : 2
Format : AC-3
Format/Info : Audio Coding 3
Mode extension : CM (complete main)
Format settings, Endianness : Big
Codec ID : A_AC3
Duration : 44mn 24s
Bit rate mode : Constant
Bit rate : 192 Kbps
Channel count : 2 channels
Channel positions : Front: L R
Sampling rate : 44.1 KHz
Bit depth : 16 bits
Compression mode : Lossy
Stream size : 61.0 MiB (6%)
Default : Yes
Forced : No

pb.wtf



Скачать Короткое слово Нет через торрент http://i95.fastpic.ru/big/2017/1024/3d/de532ec3d54ce6f20cc479439cfb043d.jpg Скачать фильм Короткое слово Нет через торрент бесплантно в хорошем качестве Описание: Они из разных миров. Тата – студентка художественной академии, Жека – вор и отчаянный авантюрист. Но эта история - не ... 7 10 3
Торрент: Зарегистрирован [2017-11-06 09:08] · скачан: 139 раз
Статус: √ проверено
Размер: 10.96 GB
Как cкачать? Как скачать Короткое слово Нет через торрент | qTorrent

28-11-2019 20:33  

Отключить всю рекламу на сайте

    Дорогой пользователь! Огромная просьба, поблагодарите релизера, оцените раздачу и оставьте свои комментарий, если Вы скачали Короткое слово Нет через торрент бесплатно! Внесите свою лепту в развитие PiratBit!
    Комментировать посты могут только пользователи прошедшие не сложную регистрацию
    Показать сообщения:    

    Короткое слово Нет через торрент
    Скачать бесплатно Короткое слово Нет
    Короткое слово Нет скачать торрент
    Короткое слово Нет смотреть онлайн
    Cкачать фильм Короткое слово Нет бесплатно
    Короткое слово Нет скачать торрент в хорошем качестве
    Короткое слово Нет смотреть онлайн бесплатно в хорошем качестве


    Вы не можете начинать темы
    Вы не можете отвечать на сообщения
    Вы не можете редактировать свои сообщения
    Вы не можете удалять свои сообщения
    Вы не можете голосовать в опросах
    Вы не можете прикреплять файлы к сообщениям
    Вы можете скачивать файлы