Достать ножи: Стеклянная луковица

MVO

Добыча

Дубляж

Уэнсдэй

1 сезон

Тор

Дубляж

13 клиническая

1 сезон

Жестокая ночь

MVO

Одни из нас

1 сезон

Deluxe

pack

Рекомендуем

30

Пиратка

ВАЖНО

ВАЖНО

Ghostwire

Пиратка

jed

RePack

nioh2

RePack

RDR2

RePack

NEED FOR SPEED™ PAYBACK

RePack

скачать торрент

Кинопоиск HD

Острые козырьки 6 сезон

6 сезон

FAR CRY 6

RePack

скачать торрент

Лицензия

скачать торрент

MVO

1

1 сезон

скачать торрент

1 сезон

скачать торрент

Лицензия

  

Василий Суриков (Анатолий Рыбаков) [1959, СССР, драма, биография, SATRip от AVP Studio]

Василий Суриков через торрент pb.wtf

Размер: 745 MB | Добавлен: 5 лет 2 мес. назад | Торрент скачан:20 раз
Смотреть онлайн | Скачать | Поддержите нас   

06-11-2017 09:50 Василий Суриков Скачать торрент  

Василий Суриков
Страна: СССР
Производство: Мосфильм

Жанр: драма, биография
Год выпуска: 1959
Продолжительность: 01:28:16

Перевод: Не требуется
Cубтитры: нет
Оригинальная аудиодорожка: русский

Режиссер: Анатолий Рыбаков

В ролях:
Евгений Лазарев, Лариса Кадочникова, Леонид Галлис, Геннадий Юдин, Георгий Вицин, Иван Кудрявцев, Анатолий Федоринов, Владимир Марута, Владимир Белокуров, Георгий Черноволенко, Николай Сергеев, Анатолий Кубацкий, Николай Горлов, Владимир Пицек...
Об актёрах подробней

Описание:
Фильм рассказывает о двух десятилетиях жизни знаменитого русского живописца Василия Ивановича Сурикова (1848-1916).
В конце 1860-х годов благодаря финансовой поддержке красноярского мецената золотопромышленника Кузнецова, талантливый юноша Василий Суриков (Евгений Лазарев) едет в Петербург и после трёхмесячной подготовки сдаёт экзамены для поступления в Академию художеств...

Источник: DVB
Качество видео: SATRip
Формат видео: AVI

Видео: 640x480 (4:3), 25 fps, XviD ~ 1043 kbps avg, 0.136 bit/pixel
Аудио: 48 kHz, MP3 2.0, 128 kbps

Раздача от:
Общее
Полное имя : Vasiliy.Surikov.1959.SATRip-745_[New-team]_by_AVP_Studio.avi
Формат : AVI
Формат/Информация : Audio Video Interleave
Размер файла : 745 Мбайт
Продолжительность : 1 ч. 28 м.
Общий поток : 1180 Кбит/сек
Программа кодирования : VirtualDubMod 1.5.10.3 | www.virtualdub-fr.org || (build 2550/release)
Библиотека кодирования : VirtualDubMod build 2550/release

Видео
Идентификатор : 0
Формат : MPEG-4 Visual
Профиль формата : Advanced [email protected]
Параметр BVOP формата : 1
Параметр QPel формата : Нет
Параметр GMC формата : Без точки перехода
Параметр матрицы формата : Выборочная
Идентификатор кодека : XVID
Идентификатор кодека/Подсказка : XviD
Продолжительность : 1 ч. 28 м.
Битрейт : 1043 Кбит/сек
Ширина : 640 пикселей
Высота : 480 пикселей
Соотношение сторон : 4:3
Частота кадров : 25,000 кадров/сек
Цветовое пространство : YUV
Субдискретизация насыщенности : 4:2:0
Битовая глубина : 8 бит
Тип развёртки : Прогрессивная
Метод сжатия : С потерями
Бит/(Пиксели*Кадры) : 0.136
Размер потока : 658 Мбайт (88%)
Библиотека кодирования : XviD 73

Аудио
Идентификатор : 1
Формат : MPEG Audio
Версия формата : Version 1
Профиль формата : Layer 3
Идентификатор кодека : 55
Идентификатор кодека/Подсказка : MP3
Продолжительность : 1 ч. 28 м.
Вид битрейта : Постоянный
Битрейт : 128 Кбит/сек
Каналы : 2 канала
Частота : 48,0 КГц
Метод сжатия : С потерями
Размер потока : 80,8 Мбайт (11%)
Выравнивание : Соединение по промежуткам
Продолжительность промежутка : 40 мс. (1,00 видеокадр)
Время предзагрузки промежутка : 504 мс.
Библиотека кодирования : LAME3.99r
Настройки программы : -m s -V 4 -q 2 -lowpass 17 -b 128



Скачать Василий Суриков через торрент http://s019.radikal.ru/i636/1711/f8/2e7850e97b13.png Скачать, смотреть онлайн Василий Суриков бесплантно в хорошем качестве Описание:Фильм рассказывает о двух десятилетиях жизни знаменитого русского живописца Василия Ивановича Сурикова (1848-1916).В конце 1860-х ... 5 10 1
Info! Золотая раздача, скачанное не засчитывается.
Торрент: Зарегистрирован [2017-11-06 09:50] · скачан: 20 раз
Статус: √ проверено
Размер: 745 MB
Как cкачать? Как скачать Василий Суриков через торрент | UTorrent

% Раздел Тема Автор DL S | L
Кино СССР [ 1.09 GB ] Василий Суриков | | SATRip-AVC от AVP Studio AVP Studio Скачать
1 | 0
Кино СССР [ 1.09 GB ] Василий Суриков | | SATRip от AVP Studio AVP Studio Скачать
1 | 0

28-11-2019 20:33  


Отключить вcю реклaмy на сайте, в т.ч. и в плеере онлайн просмотра!

    Дорогой пользователь! Огромная просьба, поблагодарите релизера, оцените раздачу и оставьте свои комментарий, если Вы скачали Василий Суриков через торрент бесплатно!!
    Комментировать посты могут только пользователи прошедшие не сложную регистрацию
    Показать сообщения:    


    Василий Суриков через торрент
    Скачать бесплатно Василий Суриков
    Василий Суриков скачать торрент
    Василий Суриков смотреть онлайн
    Cкачать фильм Василий Суриков бесплатно
    Василий Суриков скачать торрент в хорошем качестве
    Василий Суриков смотреть онлайн бесплатно в хорошем качестве
    Вы не можете начинать темы
    Вы не можете отвечать на сообщения
    Вы не можете редактировать свои сообщения
    Вы не можете удалять свои сообщения
    Вы не можете голосовать в опросах
    Вы не можете прикреплять файлы к сообщениям
    Вы можете скачивать файлы
    Василий Суриков [1959, СССР, драма, биография, SATRip от AVP Studio] смотреть онлайн, скачать торрент picoco.icu