MEGA SALE -50% FORZA HORIZON 4 ULTIMATE+ВСЕ DLC+ОНЛАЙН всего за 599р. 299 руб. (супер цена). Внимание количество ограничено!!!

iTunes

1+1

iTunes

мы

iTunes

1

iTunes

Чернобыль

iTunes

Ральф против интернета

Лицензия

ПШазам

Лицензия

Игра престолов

Лицензия

30
pack

ВАЖНО

!!Акция!!

Alien_RageХит недели

RePack

Resident Evil 21

ИГРА 18+

pack

RePack

Metro:Exodus

!!Акция!!

Alien_Rage

RePack

fifa19

RePack

Assassins Creed: Odyssey

RePack

NEED FOR SPEED™ PAYBACK

3 сезон

9 сезон

Бесстыжие 9 сезон

Все сериалы

все сериалы на PB.wtf

RePack

FAR CRY 5
Ребята, катастрофически не хватает 7730р. для оплаты серверов за АВГУСТ (всвязи с блокировками трафик упал в 3 раза), 1-2р., выручайте.
  

Надежда и слава / Hope And Glory (Джон Бурмен) [1987 г., драма, мелодрама, комедия, HDRip] MVO pb.wtf

Надежда и слава через торрент pb.wtf

Размер: 1.45 GB | Добавлен: 1 год 10 мес. назад | Торрент скачан:7 раз
Скачать  

06-11-2017 13:00 Надежда и слава Скачать торрент  

Надежда и слава / Hope And Glory
Год выпуска: 1987
Страна: Великобритания, США
Жанр: драма, мелодрама, комедия
Продолжительность: 01:52:35
Перевод: Профессиональный (многоголосый) [т/к Культура]

Режиссер: Джон Бурмен

rating

В ролях: Себастьян Райс-Эдвардс, Джеральдин Мюр, Сара Майлз, Дэвид Хейман, Сэмми Дэвис, Деррик О’Коннор, Сьюзен Вулдридж, Жан-Марк Барр, Иэн Бэннен, Энни Леон

Описание: Мемуары самого режиссера о его детстве, выпавшем на военные годы, послужили основой для этой киноистории об обычной семье, живущей в очень необычное время. Увиденные глазами мальчика ужасы и абсурд Второй мировой войны воспринимаются не как трагедия, а скорее как увлекательные приключения.

Качество: HDRip
Формат: AVI
Видео: XviD, 1643 Кбит/с, 720х432, 23.976 кадр/с
Аудио: АС3, 2 ch, 192 Кбит/с
Релиз от: Koenig
скриншот   скриншот   скриншот   скриншот   скриншот   скриншот  

Общее
Полное имя : Hope.and.Glory.1987.HDRip.avi
Формат : AVI
Формат/Информация : Audio Video Interleave
Размер файла : 1,45 Гбайт
Продолжительность : 1 ч. 52 м.
Общий поток : 1844 Кбит/сек
Программа кодирования : VirtualDubMod 1.5.10.2 (build 2540/release)
Библиотека кодирования : VirtualDubMod build 2540/release

Видео
Идентификатор : 0
Формат : MPEG-4 Visual
Профиль формата : Advanced Simple@L5
Параметр BVOP формата : 1
Параметр QPel формата : Нет
Параметр GMC формата : Без точки перехода
Параметр матрицы формата : Выборочная
Идентификатор кодека : XVID
Идентификатор кодека/Подсказка : XviD
Продолжительность : 1 ч. 52 м.
Битрейт : 1643 Кбит/сек
Ширина : 720 пикселей
Высота : 432 пикселя
Соотношение сторон : 5:3
Частота кадров : 23,976 (24000/1001) кадра/сек
Цветовое пространство : YUV
Субдискретизация насыщенности : 4:2:0
Битовая глубина : 8 бит
Тип развёртки : Прогрессивная
Метод сжатия : С потерями
Бит/(Пиксели*Кадры) : 0.220
Размер потока : 1,29 Гбайт (89%)
Библиотека кодирования : XviD 65

Аудио
Идентификатор : 1
Формат : AC-3
Формат/Информация : Audio Coding 3
Параметр Endianness формата : Big
Идентификатор кодека : 2000
Продолжительность : 1 ч. 52 м.
Вид битрейта : Постоянный
Битрейт : 192 Кбит/сек
Каналы : 2 канала
Расположение каналов : Front: L R
Частота : 48,0 КГц
Частота кадров : 31,250 кадров/сек (1536 spf)
Битовая глубина : 16 бит
Метод сжатия : С потерями
Размер потока : 155 Мбайт (10%)
Выравнивание : Разделение по промежуткам
Продолжительность промежутка : 42 мс. (1,00 видеокадр)
Время предзагрузки промежутка : 500 мс.
ServiceKind/String : Complete Main

pb.wtf



Скачать Надежда и слава через торрент http://pic1.kartinco.top/images/11/5q1jb.jpg Скачать фильм Надежда и слава через торрент бесплантно в хорошем качестве Описание: Мемуары самого режиссера о его детстве, выпавшем на военные годы, послужили основой для этой киноистории об обычной семье, ... 10 10 2
Торрент: Зарегистрирован [2017-11-06 13:00] · скачан: 7 раз
Статус: √ проверено
Размер: 1.45 GB
Как cкачать? Как скачать Надежда и слава через торрент | qTorrent


>> Регистрируемся здесь <<






Отзывы и комментарии о схеме читаем и пишем здесь: ---> Отзывы и комментарии о схеме

Новые благодарочки в телеграм довольных пользователей:
скриншот   скриншот   скриншот   скриншот   скриншот
    Дорогой пользователь! Огромная просьба, поблагодарите релизера, оцените раздачу и оставьте свои комментарий, если Вы скачали Надежда и слава через торрент бесплатно! Внесите свою лепту в развитие PiratBit!
    Комментировать посты могут только пользователи прошедшие не сложную регистрацию
    Показать сообщения:    

    Надежда и слава через торрент
    Скачать бесплатно Надежда и слава
    Надежда и слава скачать торрент
    Надежда и слава смотреть онлайн
    Cкачать фильм Надежда и слава бесплатно
    Надежда и слава скачать торрент в хорошем качестве
    Надежда и слава смотреть онлайн бесплатно в хорошем качестве


    Вы не можете начинать темы
    Вы не можете отвечать на сообщения
    Вы не можете редактировать свои сообщения
    Вы не можете удалять свои сообщения
    Вы не можете голосовать в опросах
    Вы не можете прикреплять файлы к сообщениям
    Вы можете скачивать файлы