Ссылка на приватное зеркало нашего сайта всего за 1$. Внимание количество ограничено!!!

2 сезон

iTunes

1 сезон

1

iTunes

iTunes

iTunes

1 сезон

RePack

30

ИГРА 18+

pack

ВАЖНО

!!Акция!!

Alien_RageХит недели

RePack

MK11
pack

Забери бонус

RePack

jed

!!Акция!!

Alien_Rage

RePack

fifa19

RePack

Assassins Creed: Odyssey

RePack

NEED FOR SPEED™ PAYBACK

4 сезон

9 сезон

Бесстыжие 9 сезон

Все сериалы

все сериалы на PB.wtf

RePack

FAR CRY 5
  

Троцкий / Серия 1- 8 из 8 (Александр Котт, Константин Статский) [2017 г., Драма, исторический, SATRip] pb.wtf

Троцкий через торрент pb.wtf

Размер: 5.32 GB | Добавлен: 2 года 11 мес. назад | Торрент скачан:485 раз
Скачать  

06-11-2017 22:46 Троцкий Скачать торрент  

Троцкий / Серия 1- 8 из 8
Год выпуска: 2017
Страна: Россия
Жанр: Драма, исторический
Продолжительность: 8 x ~ 00:55:00
Субтитры: Нет

Режиссер: Александр Котт, Константин Статский

В ролях: Константин Хабенский, Ольга Сутулова, Максим Матвеев, Евгений Стычкин, Орхан Абулов, Михаил Пореченков, Сергей Безруков, Сергей Гармаш, Виктория Полторак, Сергей Сосновский, Александр Баргман, Дмитрий Воробьёв

Описание: Это история человека, изменившего мир навсегда, и заплатившего за это всем, что у него было. 1940 год. Укрывающийся в Мексике политический эмигрант Лев Троцкий, потеряв за 11 лет изгнания всех близких и родных, понимает: его вечный враг, его тень, его немезида Сталин будет преследовать его до конца дней, от него нельзя спрятаться. И тогда Троцкий решает дать бой. Но его оружием станут не пули, а слова. Он оставит политическое завещание, впервые искренне рассказав о том, как бедный еврейский юноша стал пророком нового мира и разрушил крупнейшую империю, поднимая на борьбу идеями, словом и личным магнетизмом легионы голодных и обездоленных...

Качество: SATRip
Формат: AVI
Видео кодек: XviD
Аудио кодек: MP3
Видео: 704x352, 25 fps, XviD build 50 ~1800 kbps
Аудио#1: 48 kHz, MPEG Layer 3, 2 ch, ~128.00 kbps
скриншот   скриншот   скриншот   скриншот  

General
Complete name : H:\релизы.торрентфайл\Троцкий(2017)\Trockij.02.SATRip.[www.riperam.org].avi
Format : AVI
Format/Info : Audio Video Interleave
File size : 606 MiB
Duration : 43mn 42s
Overall bit rate : 1 938 Kbps
Writing application : VirtualDubMod 1.5.10.3 | www.virtualdub-fr.org || (build 2550/release)
Writing library : VirtualDubMod build 2550/release

Video
ID : 0
Format : MPEG-4 Visual
Format profile : Advanced Simple@L5
Format settings, BVOP : 2
Format settings, QPel : No
Format settings, GMC : No warppoints
Format settings, Matrix : Default (H.263)
Codec ID : XVID
Codec ID/Hint : XviD
Duration : 43mn 42s
Bit rate : 1 800 Kbps
Width : 704 pixels
Height : 352 pixels
Display aspect ratio : 2.000
Frame rate : 25.000 fps
Color space : YUV
Chroma subsampling : 4:2:0
Bit depth : 8 bits
Scan type : Progressive
Compression mode : Lossy
Bits/(Pixel*Frame) : 0.291
Stream size : 563 MiB (93%)
Writing library : XviD 1.2.1 (UTC 2008-12-04)

Audio
ID : 1
Format : MPEG Audio
Format version : Version 1
Format profile : Layer 3
Mode : Joint stereo
Mode extension : MS Stereo
Codec ID : 55
Codec ID/Hint : MP3
Duration : 43mn 42s
Bit rate mode : Constant
Bit rate : 128 Kbps
Channel(s) : 2 channels
Sampling rate : 48.0 KHz
Compression mode : Lossy
Stream size : 40.0 MiB (7%)
Alignment : Aligned on interleaves
Interleave, duration : 40 ms (1.00 video frame)
Interleave, preload duration : 504 ms
Writing library : LAME3.99r
Encoding settings : -m j -V 4 -q 9 -lowpass 17 -b 128

Внимание! Раздача ведётся путём добавления новых серий; при каждом добавлении создётся новый торрент. Чтобы начать докачку новой серии, пользователям необходимо сделать следующее:
  • Остановить скачивание,
  • Удалить старый торрент у себя из клиента (старые серии удалять не надо),
  • Скачать новый торрент и запустить его у себя в клиенте вместо старого, при этом указать клиенту путь в старую папку куда и должно происходить скачивание новых серий.
Ваш клиент при этом должен произвести хеширование (проверку) старой папки (если не производит сам - помогите ему сделать это), и будет докачивать только те серии которых у вас ещё нет. Старые серии при этом не удаляются, а продолжают раздаваться!

Eсли вы уже удалили старые серии, то предотвратить повторную закачку старых серий можно, отжав галочку в соответсвующих местах при запуске нового торрента. По возможности, желательно не удалять старые серии как можно дольше чтобы релизёр не столько продолжал раздавать старые серии, а смог сконцентрироваться на новых.
pb.wtf



Скачать Троцкий через торрент http://pic1.kartinco.top/images/11/x128w.jpg Скачать фильм Троцкий через торрент бесплантно в хорошем качестве Описание: Это история человека, изменившего мир навсегда, и заплатившего за это всем, что у него было. 1940 год. Укрывающийся в Мексике ... 9.1 10 19
Торрент: Зарегистрирован [2017-11-09 14:47] · скачан: 485 раз
Статус: √ проверено
Размер: 5.32 GB
Как cкачать? Как скачать Троцкий через торрент | qTorrent

% Раздел Тема Автор DL S | L
Наши сериалы [ 10.22 GB ] Троцкий / Серии: 1-8 из 8 [2017 биография история HDTVRip 720p] bober100 Скачать
1 | 0
Наши сериалы [ 19.54 GB ] Троцкий / Серии: 1-8 из 8 [2017 биография история HDTV 1080i] bober100 Скачать
1 | 0
Наши сериалы [ 5.54 GB ] Троцкий / Серии: 1-8 из 8 [2017 Биография исторический фильм HDTVRip] bober100 Скачать
1 | 0
Наши сериалы [ 4.94 GB ] Троцкий / Серии: 1-8 из 8 [2017 биография история SATRip-AVC] aleksan55 Скачать
1 | 0


Последний раз редактировалось: oleg8 (2017-11-09 14:55), всего редактировалось 3 раз(а)

28-11-2019 20:33  

Отключить всю рекламу на сайте

07-11-2017 14:58 Троцкий Скачать торрент  

Спасибо конечно за раздачу, но получше качество нельзя сделать? Хотябы в AVC?pb.wtf



07-11-2017 20:40 Троцкий Скачать торрент  

plaha_m писал(а):

Спасибо конечно за раздачу, но получше качество нельзя сделать? Хотябы в AVC?

Вам сюда. Троцкий / Серии: 1-8 из 8 Наберите в поиске-Троцкий.pb.wtf



08-11-2017 15:03 Троцкий Скачать торрент  

oleg8 писал(а):

plaha_m писал(а):

Спасибо конечно за раздачу, но получше качество нельзя сделать? Хотябы в AVC?

Вам сюда. Троцкий / Серии: 1-8 из 8 Наберите в поиске-Троцкий.

Спасибо, но тут просто серий больше)))pb.wtf



09-11-2017 14:53 Троцкий Скачать торрент  

Добавил 7-8 серии.Сериал завершен.pb.wtf



09-11-2017 17:39 Троцкий Скачать торрент  

Лейба Бронштейн был пятым ребёнком в семье богатых землевладельцев-арендодателей из числа еврейских колонистов земледельческого хутора неподалёку от села Яновка Елисаветградского уезда Херсонской губернии. ну ето так для матчасти.
А как сериал?кто смотрел?pb.wtf



    Дорогой пользователь! Огромная просьба, поблагодарите релизера, оцените раздачу и оставьте свои комментарий, если Вы скачали Троцкий через торрент бесплатно! Внесите свою лепту в развитие PiratBit!
    Комментировать посты могут только пользователи прошедшие не сложную регистрацию
    Показать сообщения:    

    Троцкий через торрент
    Скачать бесплатно Троцкий
    Троцкий скачать торрент
    Троцкий смотреть онлайн
    Cкачать фильм Троцкий бесплатно
    Троцкий скачать торрент в хорошем качестве
    Троцкий смотреть онлайн бесплатно в хорошем качестве


    Вы не можете начинать темы
    Вы не можете отвечать на сообщения
    Вы не можете редактировать свои сообщения
    Вы не можете удалять свои сообщения
    Вы не можете голосовать в опросах
    Вы не можете прикреплять файлы к сообщениям
    Вы можете скачивать файлы