Ссылка на приватное зеркало нашего сайта всего за 1$. Внимание количество ограничено!!!

2 сезон

iTunes

1 сезон

1

iTunes

iTunes

iTunes

1 сезон

RePack

30

ИГРА 18+

pack

ВАЖНО

!!Акция!!

Alien_RageХит недели

RePack

MK11
pack

Забери бонус

RePack

jed

!!Акция!!

Alien_Rage

RePack

fifa19

RePack

Assassins Creed: Odyssey

RePack

NEED FOR SPEED™ PAYBACK

4 сезон

9 сезон

Бесстыжие 9 сезон

Все сериалы

все сериалы на PB.wtf

RePack

FAR CRY 5
  

Перемотка / Be Kind Rewind (Мишель Гондри) [2008, комедия, BDRip 1080p by msltel] 2 x MVO, AVO pb.wtf

Перемотка через торрент pb.wtf

Размер: 10.86 GB | Добавлен: 2 года 11 мес. назад | Торрент скачан:32 раза
Скачать  

07-11-2017 05:52 Перемотка Скачать торрент  

Название: Перемотка
Оригинальное название: Be Kind Rewind
Год выпуска: 2008
Страна: США, Великобритания
Жанр: комедия
Продолжительность: 01:41:43
Перевод: профессиональный многоголосый, авторский

Режиссер: Мишель Гондри
В ролях: Джек Блэк, Сигурни Уивер, Мос Деф, Дэнни Гловер, Миа Фэрроу, Мелони Диаз, Ирв Гуч, Чандлер Паркер, Эрджей Смит, Куинтон Аарон

О фильме: Мусорщик Джерри решает саботировать электростанцию, которая, по его мнению, вызывает у него жуткие головные боли. Но саботаж кончается тем, что у Джерри намагничивается мозг и он, сам того не ведая, размагничивает все видеокассеты в пункте проката, в котором работает его лучший друг Майк. Теперь, для того чтобы удержать единственного лояльного клиента видеопроката, умалишенную старушку Кимберли, друзья пытаются своими силами воссоздать главные фильмы из коллекции Майка, включая «Короля Льва», «Час пик», «Шофёра Мисс Дэйзи», «Охотников за привидениями», «Назад в будущее» и «Робокопа»...



Качество: BDRip 1080p
Формат: MKV
Видео: MPEG-4 AVC, 11.6 Mбит/с, 1920x816, 23.976 кадр/с
Аудио 1: русский, AC3, 448 kbps, 6 ch, 48 kHz [профессиональный многоголосый, R5]
Аудио 2: русский, AC3, 192 kbps, 2 ch, 48 kHz [профессиональный многоголосый, OPT]
Аудио 3: русский, DTS, 1509 kbps, 6 ch, 48 kHz [авторский, Вячеслав Котов]
Аудио 4: английский, DTS, 1509 kbps, 6 ch, 48 kHz [оригинал]
Субтитры 1: русские (вариант 1)
Субтитры 2: русские (вариант 2)
Субтитры 3: английские
Неименованные главы/чаптеры.
Общее
Уникальный идентификатор : 187515937627252279189335343700627925353 (0x8D124184CCCDDF04B4C899E2D2CBA969)
Полное имя : D:\Video\Перемотка.2008.BDRip.1080p by msltel.mkv
Формат : Matroska
Версия формата : Version 4 / Version 2
Размер файла : 10,9 Гбайт
Продолжительность : 1 ч. 41 м.
Общий поток : 15,3 Мбит/сек
Название фильма : Rip by msltel
Дата кодирования : UTC 2017-11-07 01:40:32
Программа кодирования : mkvmerge v8.2.0 ('World of Adventure') 64bit
Библиотека кодирования : libebml v1.3.1 + libmatroska v1.4.2

Видео
Идентификатор : 1
Формат : AVC
Формат/Информация : Advanced Video Codec
Профиль формата : High@L4.1
Настройки формата : CABAC / 4 Ref Frames
Параметр CABAC формата : Да
Параметр RefFrames формата : 4 кадра
Идентификатор кодека : V_MPEG4/ISO/AVC
Продолжительность : 1 ч. 41 м.
Битрейт : 11,6 Мбит/сек
Ширина : 1920 пикселей
Высота : 816 пикселей
Соотношение сторон : 2,35:1
Режим частоты кадров : Постоянный
Частота кадров : 23,976 (24000/1001) кадра/сек
Цветовое пространство : YUV
Субдискретизация насыщенности : 4:2:0
Битовая глубина : 8 бит
Тип развёртки : Прогрессивная
Бит/(Пиксели*Кадры) : 0.309
Размер потока : 8,26 Гбайт (76%)
Библиотека кодирования : x264 core 146 r2538 121396c
Настройки программы : cabac=1 / ref=4 / deblock=1:-3:-2 / analyse=0x3:0x113 / me=umh / subme=11 / psy=1 / psy_rd=1.00:0.15 / mixed_ref=1 / me_range=32 / chroma_me=1 / trellis=2 / 8x8dct=1 / cqm=0 / deadzone=21,11 / fast_pskip=0 / chroma_qp_offset=-3 / threads=6 / lookahead_threads=1 / sliced_threads=0 / nr=0 / decimate=1 / interlaced=0 / bluray_compat=0 / constrained_intra=0 / bframes=9 / b_pyramid=2 / b_adapt=2 / b_bias=0 / direct=1 / weightb=1 / open_gop=0 / weightp=2 / keyint=230 / keyint_min=23 / scenecut=40 / intra_refresh=0 / rc_lookahead=40 / rc=crf / mbtree=0 / crf=16.8 / qcomp=0.60 / qpmin=0 / qpmax=69 / qpstep=4 / vbv_maxrate=62500 / vbv_bufsize=78125 / crf_max=0.0 / nal_hrd=none / filler=0 / ip_ratio=1.40 / pb_ratio=1.30 / aq=1:1.00
Язык : English
Default : Да
Forced : Нет

Аудио #1
Идентификатор : 2
Формат : AC-3
Формат/Информация : Audio Coding 3
Идентификатор кодека : A_AC3
Продолжительность : 1 ч. 41 м.
Вид битрейта : Постоянный
Битрейт : 448 Кбит/сек
Каналы : 6 каналов
Расположение каналов : Front: L C R, Side: L R, LFE
Частота : 48,0 КГц
Частота кадров : 31,250 кадров/сек (1536 SPF)
Битовая глубина : 16 бит
Метод сжатия : С потерями
Размер потока : 326 Мбайт (3%)
Заголовок : MVO R5
Язык : Russian
ServiceKind/String : Complete Main
Default : Да
Forced : Нет

Аудио #2
Идентификатор : 3
Формат : AC-3
Формат/Информация : Audio Coding 3
Идентификатор кодека : A_AC3
Продолжительность : 1 ч. 41 м.
Вид битрейта : Постоянный
Битрейт : 192 Кбит/сек
Каналы : 2 канала
Расположение каналов : Front: L R
Частота : 48,0 КГц
Частота кадров : 31,250 кадров/сек (1536 SPF)
Битовая глубина : 16 бит
Метод сжатия : С потерями
Размер потока : 140 Мбайт (1%)
Заголовок : MVO OPT
Язык : Russian
ServiceKind/String : Complete Main
Default : Нет
Forced : Нет

Аудио #3
Идентификатор : 4
Формат : DTS
Формат/Информация : Digital Theater Systems
Идентификатор кодека : A_DTS
Продолжительность : 1 ч. 41 м.
Вид битрейта : Постоянный
Битрейт : 1509 Кбит/сек
Каналы : 6 каналов
Расположение каналов : Front: L C R, Side: L R, LFE
Частота : 48,0 КГц
Частота кадров : 93,750 кадра/сек (512 SPF)
Битовая глубина : 24 бит
Метод сжатия : С потерями
Размер потока : 1,07 Гбайт (10%)
Заголовок : Вячеслав Котов
Язык : Russian
Default : Нет
Forced : Нет

Аудио #4
Идентификатор : 5
Формат : DTS
Формат/Информация : Digital Theater Systems
Профиль формата : ES Matrix / Core
Идентификатор кодека : A_DTS
Продолжительность : 1 ч. 41 м.
Вид битрейта : Постоянный
Битрейт : 1509 Кбит/сек
Каналы : 7 каналов / 6 каналов
Расположение каналов : Front: L C R, Side: L R, Back: C, LFE / Front: L C R, Side: L R, LFE
Частота : 48,0 КГц
Частота кадров : 93,750 кадра/сек (512 SPF)
Битовая глубина : 24 бит
Метод сжатия : С потерями
Размер потока : 1,07 Гбайт (10%)
Заголовок : original
Язык : English
Default : Нет
Forced : Нет

Текст #1
Идентификатор : 6
Формат : UTF-8
Идентификатор кодека : S_TEXT/UTF8
Идентификатор кодека/Информация : UTF-8 Plain Text
Продолжительность : 1 ч. 37 м.
Битрейт : 122 бит/сек
ElementCount : 1537
Размер потока : 87,1 Кбайт (0%)
Заголовок : русские вариант 1
Default : Да
Forced : Нет

Текст #2
Идентификатор : 7
Формат : UTF-8
Идентификатор кодека : S_TEXT/UTF8
Идентификатор кодека/Информация : UTF-8 Plain Text
Продолжительность : 1 ч. 37 м.
Битрейт : 153 бит/сек
ElementCount : 1785
Размер потока : 109 Кбайт (0%)
Заголовок : русские вариант 2
Язык : Russian
Default : Нет
Forced : Нет

Текст #3
Идентификатор : 8
Формат : UTF-8
Идентификатор кодека : S_TEXT/UTF8
Идентификатор кодека/Информация : UTF-8 Plain Text
Продолжительность : 1 ч. 40 м.
Битрейт : 108 бит/сек
ElementCount : 1856
Размер потока : 80,3 Кбайт (0%)
Заголовок : английские
Язык : Russian
Default : Нет
Forced : Нет

Меню
00:00:00.000 : en:Chapter 01
00:04:25.890 : en:Chapter 02
00:10:30.546 : en:Chapter 03
00:14:16.480 : en:Chapter 04
00:23:39.292 : en:Chapter 05
00:26:53.987 : en:Chapter 06
00:29:46.326 : en:Chapter 07
00:37:19.904 : en:Chapter 08
00:41:07.047 : en:Chapter 09
00:43:40.117 : en:Chapter 10
00:47:06.824 : en:Chapter 11
00:50:31.611 : en:Chapter 12
00:52:55.172 : en:Chapter 13
00:56:00.106 : en:Chapter 14
00:58:20.163 : en:Chapter 15
01:00:23.328 : en:Chapter 16
01:06:30.277 : en:Chapter 17
01:10:04.992 : en:Chapter 18
01:12:09.700 : en:Chapter 19
01:14:22.332 : en:Chapter 20
01:17:11.209 : en:Chapter 21
01:24:26.978 : en:Chapter 22
01:28:15.873 : en:Chapter 23
01:35:47.533 : en:Chapter 24
pb.wtf



Скачать Перемотка через торрент http://s019.radikal.ru/i643/1711/da/4656d4e3bf83.jpg Скачать фильм Перемотка через торрент бесплантно в хорошем качестве О фильме: Мусорщик Джерри решает саботировать электростанцию, которая, по его мнению, вызывает у него жуткие головные боли. Но саботаж ... 7 10 3
Info! Золотая раздача, скачанное не засчитывается.
Торрент: Зарегистрирован [2017-11-07 05:52] · скачан: 32 раз
Статус: √ проверено
Размер: 10.86 GB
Как cкачать? Как скачать Перемотка через торрент | qTorrent

% Раздел Тема Автор DL S | L
Фильмы [HD 720p, 1080p] (Хороший звук DUB, MVO) [ 4.07 GB ] Перемотка / Be Kind Rewind [2008 BDRip 720p by msltel] 2 x MVO AVO msltel Скачать
1 | 0

28-11-2019 20:33  

Отключить всю рекламу на сайте

    Дорогой пользователь! Огромная просьба, поблагодарите релизера, оцените раздачу и оставьте свои комментарий, если Вы скачали Перемотка через торрент бесплатно! Внесите свою лепту в развитие PiratBit!
    Комментировать посты могут только пользователи прошедшие не сложную регистрацию
    Показать сообщения:    

    Перемотка через торрент
    Скачать бесплатно Перемотка
    Перемотка скачать торрент
    Перемотка смотреть онлайн
    Cкачать фильм Перемотка бесплатно
    Перемотка скачать торрент в хорошем качестве
    Перемотка смотреть онлайн бесплатно в хорошем качестве


    Вы не можете начинать темы
    Вы не можете отвечать на сообщения
    Вы не можете редактировать свои сообщения
    Вы не можете удалять свои сообщения
    Вы не можете голосовать в опросах
    Вы не можете прикреплять файлы к сообщениям
    Вы можете скачивать файлы