MEGA SALE -50% FORZA HORIZON 4 ULTIMATE+ВСЕ DLC+ОНЛАЙН всего за 599р. 299 руб. (супер цена). Внимание количество ограничено!!!

iTunes

1+1

iTunes

мы

iTunes

1

iTunes

Чернобыль

iTunes

Ральф против интернета

Лицензия

ПШазам

Лицензия

Игра престолов

Лицензия

30
pack

ВАЖНО

!!Акция!!

Alien_RageХит недели

RePack

Resident Evil 21

ИГРА 18+

pack

RePack

Metro:Exodus

!!Акция!!

Alien_Rage

RePack

fifa19

RePack

Assassins Creed: Odyssey

RePack

NEED FOR SPEED™ PAYBACK

3 сезон

9 сезон

Бесстыжие 9 сезон

Все сериалы

все сериалы на PB.wtf

RePack

FAR CRY 5
Ребята, катастрофически не хватает 7730р. для оплаты серверов за АВГУСТ (всвязи с блокировками трафик упал в 3 раза), 1-2р., выручайте.
  

Калифорнийский отель / California Suite (Херберт Росс) [1978 г., драма, мелодрама, комедия, WEBRip] DVO pb.wtf

Калифорнийский отель через торрент pb.wtf

Размер: 1.45 GB | Добавлен: 1 год 10 мес. назад | Торрент скачан:8 раз
Скачать  

07-11-2017 18:21 Калифорнийский отель Скачать торрент  

Калифорнийский отель / California Suite
Год выпуска: 1978
Страна: США
Жанр: драма, мелодрама, комедия
Продолжительность: 01:42:33
Перевод: Профессиональный (двухголосый)
Тип релиза: Amazon

Режиссер: Херберт Росс

rating

В ролях: Алан Алда, Майкл Кейн, Билл Косби, Джейн Фонда, Мэгги Смит, Уолтер Мэттау, Элейн Мэй, Ричард Прайор, Херб Эдельман, Дениз Галик-Фери, Глория Гиффорд, Шила Фрэзиер, Дэвид Шиэн, Майкл Бойл, Лен Лосон, Джино Ардито, Джерролд Зиман, Клинт Янг, Дэвид Мэттоу, Джеймс Эспиноза, Бадди Дуглас, Арман Черами, Джозеф Морена, Брайан Каммингс, Билл Кукс, Зора Маргулис, Рита Гомез, Тина Менар

Описание: Четыре новеллы, сочиненные драматургом Нилом Саймоном о постояльцах одного гостиничного номера в Беверли Хиллз. Чонси и Уильямс вечно ссорятся с женами. Ханна Уорен выясняет отношения со своим бывшим мужем и дочерью.

Качество: WEBRip
Формат: AVI
Видео: XviD, 1823 Кбит/с, 720x400, 23.976 кадр/с
Аудио: AC3, 2 ch, 192 Кбит/с
Релиз от: Koenig
скриншот   скриншот   скриншот   скриншот   скриншот   скриншот  

Общее
Полное имя : California.Suite.1978.WEBRip.avi
Формат : AVI
Формат/Информация : Audio Video Interleave
Размер файла : 1,45 Гбайт
Продолжительность : 1 ч. 42 м.
Общий поток : 2024 Кбит/сек
Программа кодирования : VirtualDubMod 1.5.10.2 (build 2540/release)
Библиотека кодирования : VirtualDubMod build 2540/release

Видео
Идентификатор : 0
Формат : MPEG-4 Visual
Профиль формата : Advanced Simple@L5
Параметр BVOP формата : 1
Параметр QPel формата : Нет
Параметр GMC формата : Без точки перехода
Параметр матрицы формата : Выборочная
Идентификатор кодека : XVID
Идентификатор кодека/Подсказка : XviD
Продолжительность : 1 ч. 42 м.
Битрейт : 1823 Кбит/сек
Ширина : 720 пикселей
Высота : 400 пикселей
Соотношение сторон : 16:9
Частота кадров : 23,976 (24000/1001) кадра/сек
Цветовое пространство : YUV
Субдискретизация насыщенности : 4:2:0
Битовая глубина : 8 бит
Тип развёртки : Прогрессивная
Метод сжатия : С потерями
Бит/(Пиксели*Кадры) : 0.264
Размер потока : 1,31 Гбайт (90%)
Библиотека кодирования : XviD 65

Аудио
Идентификатор : 1
Формат : AC-3
Формат/Информация : Audio Coding 3
Параметр Endianness формата : Big
Идентификатор кодека : 2000
Продолжительность : 1 ч. 42 м.
Вид битрейта : Постоянный
Битрейт : 192 Кбит/сек
Каналы : 2 канала
Расположение каналов : Front: L R
Частота : 48,0 КГц
Частота кадров : 31,250 кадров/сек (1536 spf)
Битовая глубина : 16 бит
Метод сжатия : С потерями
Размер потока : 141 Мбайт (9%)
Выравнивание : Разделение по промежуткам
Продолжительность промежутка : 42 мс. (1,00 видеокадр)
Время предзагрузки промежутка : 500 мс.
ServiceKind/String : Complete Main

pb.wtf



Скачать Калифорнийский отель через торрент http://pic1.kartinco.top/images/11/ps7el.jpg Скачать фильм Калифорнийский отель через торрент бесплантно в хорошем качестве Описание: Четыре новеллы, сочиненные драматургом Нилом Саймоном о постояльцах одного гостиничного номера в Беверли Хиллз. Чонси и Уильямс ... 10 10 2
Торрент: Зарегистрирован [2017-11-07 18:21] · скачан: 8 раз
Статус: √ проверено
Размер: 1.45 GB
Как cкачать? Как скачать Калифорнийский отель через торрент | qTorrent


>> Регистрируемся здесь <<






Отзывы и комментарии о схеме читаем и пишем здесь: ---> Отзывы и комментарии о схеме

Новые благодарочки в телеграм довольных пользователей:
скриншот   скриншот   скриншот   скриншот   скриншот
    Дорогой пользователь! Огромная просьба, поблагодарите релизера, оцените раздачу и оставьте свои комментарий, если Вы скачали Калифорнийский отель через торрент бесплатно! Внесите свою лепту в развитие PiratBit!
    Комментировать посты могут только пользователи прошедшие не сложную регистрацию
    Показать сообщения:    

    Калифорнийский отель через торрент
    Скачать бесплатно Калифорнийский отель
    Калифорнийский отель скачать торрент
    Калифорнийский отель смотреть онлайн
    Cкачать фильм Калифорнийский отель бесплатно
    Калифорнийский отель скачать торрент в хорошем качестве
    Калифорнийский отель смотреть онлайн бесплатно в хорошем качестве


    Вы не можете начинать темы
    Вы не можете отвечать на сообщения
    Вы не можете редактировать свои сообщения
    Вы не можете удалять свои сообщения
    Вы не можете голосовать в опросах
    Вы не можете прикреплять файлы к сообщениям
    Вы можете скачивать файлы