Ссылка на приватное зеркало нашего сайта всего за 1$. Внимание количество ограничено!!!

2 сезон

iTunes

1 сезон

1

2 сезон

2 сезон

iTunes

1 сезон

RePack

30

Ultimate

ВАЖНО

ИГРА 18+

pack

RePack

MK11
pack

Забери бонус

RePack

jed

!!Акция!!

Alien_Rage

RePack

fifa19

RePack

Assassins Creed: Odyssey

RePack

NEED FOR SPEED™ PAYBACK

4 сезон

9 сезон

Бесстыжие 9 сезон

Все сериалы

все сериалы на PB.wtf

RePack

FAR CRY 5
  

У холмов есть глаза 2 / The Hills Have Eyes II (Мартин Вайз) [2007, Ужасы, триллер, BD Remux 1080p] DUB+DVO+2xAVO pb.wtf

У холмов есть глаза 2 через торрент pb.wtf

Размер: 17.93 GB | Добавлен: 3 года назад | Торрент скачан:20 раз
Скачать  

08-11-2017 12:34 У холмов есть глаза 2 Скачать торрент  

У холмов есть глаза 2 / The Hills Have Eyes IIГод выпуска: 2007
Страна: США
Жанр: Ужасы, триллер
Продолжительность: 01:29:59
Перевод: Дубляж, профессиональный двухголосый, авторский
Субтитры: Русские, английские

Режиссер: Мартин Вайз

rating

В ролях:

Майкл МакМиллиан, Джессика Строуп, Джейкоб Варгас, Флекс Александр, Ли Томпсон Янг, Даниэлла Алонсо, Эрик Эдельштейн, Решад Стрик, Бен Краули, Майкл Бэйли Смит

Описание:

Во время учений солдаты Национальной гвардии США делают привал на пограничной заставе в Нью-Мексико и, к своему удивлению, обнаруживают, что там никого нет. Получив сигнал тревоги, исходящий с отдалённой горной возвышенности, группа военных решает отправиться в этот район, чтобы помочь терпящим бедствие. Спасатели не знают, что это местечко когда-то посетила печально известная семья Картеров, и что их поджидают кровожадные мутанты-каннибалы...

Качество: BD Remux 1080p
Формат: MKV
Видео кодек: H.264
Аудио кодек: DTS

Видео: 18698 Кбит/с, 1920x1080, 23.976 кадp/с
Аудио#1: Русский: DTS, 5.1 ch, 48kHz, 768 kbps - Дубляж
Аудио#2: Русский: DTS-HD HR, 5.1 ch, 48 kHz/24-bit, ~3018 kbps (DTS Core: 5.1 / 48 kHz / 1509 kbps / 24-bit) - Профессиональный двухголосый (П.Гланц и И.Королёва)
Аудио#3: Русский DTS 5.1, 1509 Kbps, 48.0 KHz - Авторский (М. Яроцкий)
Аудио#4: Русский DTS 5.1, 1509 Kbps, 48.0 KHz - Авторский (Д. Есарев)
Аудио#5: Английский: DTS-HD HR, 5.1 ch, 48 kHz/24-bit, ~3018 kbps (DTS Core: 5.1 / 48 kHz / 1509 kbps / 24-bit) - Оригинал
скриншот   скриншот   скриншот   скриншот   скриншот   скриншот  

Общее
Уникальный идентификатор : 201384888461954087138464794079901626954 (0x978151968F12564E8240252D7085B24A)
Полное имя : D:\РЕМУКС!!!!!\У холмов есть глаза -2.BDRemux..mkv
Формат : Matroska
Версия формата : Version 4 / Version 2
Размер файла : 17,9 Гбайт
Продолжительность : 1 ч. 29 м.
Режим общего битрейта : Переменный
Общий поток : 28,5 Мбит/сек
Название фильма : У холмов есть глаза -2.BDRemux.thx:SPOMOPS.
Дата кодирования : UTC 2015-12-20 05:35:49
Программа кодирования : mkvmerge v6.1.0 ('Old Devil') built on Mar 4 2013 09:10:42
Библиотека кодирования : libebml v1.3.0 + libmatroska v1.4.0

Видео
Идентификатор : 1
Формат : AVC
Формат/Информация : Advanced Video Codec
Профиль формата : High@L4.1
Параметр CABAC формата : Да
Параметр ReFrames формата : 4 кадра
Режим смешивания : Container profile=Unknown@0.0
Идентификатор кодека : V_MPEG4/ISO/AVC
Продолжительность : 1 ч. 29 м.
Вид битрейта : Переменный
Битрейт : 18,1 Мбит/сек
Максимальный битрейт : 36,0 Мбит/сек
Ширина : 1920 пикселей
Высота : 1080 пикселей
Соотношение сторон : 16:9
Режим частоты кадров : Постоянный
Частота кадров : 23,976 кадра/сек
Цветовое пространство : YUV
Субдискретизация насыщенности : 4:2:0
Битовая глубина : 8 бит
Тип развёртки : Прогрессивная
Бит/(Пиксели*Кадры) : 0.365
Размер потока : 11,4 Гбайт (64%)
Заголовок : The Hills Have Eyes II (2007) [Unrated] ~18698 kbps
Язык : English
Default : Да
Forced : Нет
Основные цвета : BT.709
Характеристики трансфера : BT.709
Коэффициенты матрицы : BT.709

Аудио #1
Идентификатор : 2
Формат : DTS
Формат/Информация : Digital Theater Systems
Режим : 16
Параметр Endianness формата : Big
Идентификатор кодека : A_DTS
Продолжительность : 1 ч. 29 м.
Вид битрейта : Постоянный
Битрейт : 768 Кбит/сек
Каналы : 6 каналов
Расположение каналов : Front: L C R, Side: L R, LFE
Частота : 48,0 КГц
Битовая глубина : 24 бит
Метод сжатия : С потерями
Размер потока : 494 Мбайт (3%)
Заголовок : Русский - Дубляж, Blu-ray CEE / Невафильм DTS, 768 kbps
Язык : Russian
Default : Да
Forced : Нет

Аудио #2
Идентификатор : 3
Формат : DTS
Формат/Информация : Digital Theater Systems
Профиль формата : HRA / Core
Режим : 16
Параметр Endianness формата : Big
Идентификатор кодека : A_DTS
Продолжительность : 1 ч. 29 м.
Вид битрейта : Постоянный
Битрейт : 3018 Кбит/сек / 1509 Кбит/сек
Каналы : 6 каналов
Расположение каналов : Front: L C R, Side: L R, LFE
Частота : 48,0 КГц
Битовая глубина : 24 бит
Метод сжатия : С потерями
Размер потока : 1,90 Гбайт (11%)
Заголовок : Русский - Двухголосый закадровый, Пётр Гланц и Инна Королёва DTS-HD HR ~3018 kbps
Язык : Russian
Default : Нет
Forced : Нет

Аудио #3
Идентификатор : 4
Формат : DTS
Формат/Информация : Digital Theater Systems
Режим : 16
Параметр Endianness формата : Big
Идентификатор кодека : A_DTS
Продолжительность : 1 ч. 29 м.
Вид битрейта : Постоянный
Битрейт : 1509 Кбит/сек
Каналы : 6 каналов
Расположение каналов : Front: L C R, Side: L R, LFE
Частота : 48,0 КГц
Битовая глубина : 24 бит
Метод сжатия : С потерями
Размер потока : 971 Мбайт (5%)
Заголовок : Русский - АП Яроцкий DTS 1509 Kbps
Язык : Russian
Default : Нет
Forced : Нет

Аудио #4
Идентификатор : 5
Формат : DTS
Формат/Информация : Digital Theater Systems
Режим : 16
Параметр Endianness формата : Big
Идентификатор кодека : A_DTS
Продолжительность : 1 ч. 29 м.
Вид битрейта : Постоянный
Битрейт : 1509 Кбит/сек
Каналы : 6 каналов
Расположение каналов : Front: L C R, Side: L R, LFE
Частота : 48,0 КГц
Битовая глубина : 24 бит
Метод сжатия : С потерями
Размер потока : 971 Мбайт (5%)
Заголовок : Русский - АП Есарев DTS 1509 Kbps
Язык : Russian
Default : Нет
Forced : Нет

Аудио #5
Идентификатор : 6
Формат : DTS
Формат/Информация : Digital Theater Systems
Профиль формата : HRA / Core
Режим : 16
Параметр Endianness формата : Big
Идентификатор кодека : A_DTS
Продолжительность : 1 ч. 29 м.
Вид битрейта : Постоянный
Битрейт : 3018 Кбит/сек / 1509 Кбит/сек
Каналы : 6 каналов
Расположение каналов : Front: L C R, Side: L R, LFE
Частота : 48,0 КГц
Битовая глубина : 24 бит
Метод сжатия : С потерями
Размер потока : 1,90 Гбайт (11%)
Заголовок : Английский - DTS-HD HR ~3018 kbps
Язык : English
Default : Нет
Forced : Нет

Текст #1
Идентификатор : 7
Формат : UTF-8
Идентификатор кодека : S_TEXT/UTF8
Идентификатор кодека/Информация : UTF-8 Plain Text
Заголовок : Forced
Язык : Russian
Default : Да
Forced : Нет

Текст #2
Идентификатор : 8
Формат : UTF-8
Идентификатор кодека : S_TEXT/UTF8
Идентификатор кодека/Информация : UTF-8 Plain Text
Заголовок : Full
Язык : Russian
Default : Нет
Forced : Нет

Текст #3
Идентификатор : 9
Формат : UTF-8
Идентификатор кодека : S_TEXT/UTF8
Идентификатор кодека/Информация : UTF-8 Plain Text
Заголовок : Full
Язык : English
Default : Нет
Forced : Нет

Текст #4
Идентификатор : 10
Формат : UTF-8
Идентификатор кодека : S_TEXT/UTF8
Идентификатор кодека/Информация : UTF-8 Plain Text
Заголовок : SDH
Язык : English
Default : Нет
Forced : Нет

Меню
00:00:00.000 : :01. Main Titles/Run Away
00:07:17.061 : :02. Trainees
00:11:16.133 : :03. Sector 16
00:17:22.583 : :04. Search and Rescue
00:22:46.239 : :05. Message
00:26:11.945 : :06. Mickey Dies
00:32:23.691 : :07. Accident
00:38:52.788 : :08. One by One
00:46:19.443 : :09. Bait
00:50:49.588 : :10. In the Mines
00:56:52.867 : :11. In Trouble
01:03:26.344 : :12. Temporary Safety
01:08:08.292 : :13. Another Leader Dies
01:15:44.414 : :14. By Themselves
01:19:21.631 : :15. Rescuing Missy
01:24:42.118 : :16. Escape/End Titles

pb.wtf



Скачать У холмов есть глаза 2 через торрент http://s016.radikal.ru/i334/1711/09/5aa76722dd3c.jpg Скачать фильм У холмов есть глаза 2 через торрент бесплантно в хорошем качестве Описание: Во время учений солдаты Национальной гвардии США делают привал на пограничной заставе в Нью-Мексико и, к своему удивлению, ... 10 10 5
Торрент: Зарегистрирован [2017-11-08 12:34] · скачан: 20 раз
Статус: √ проверено
Размер: 17.93 GB
Как cкачать? Как скачать У холмов есть глаза 2 через торрент | qTorrent

28-11-2019 20:33  

Отключить всю рекламу на сайте

    Дорогой пользователь! Огромная просьба, поблагодарите релизера, оцените раздачу и оставьте свои комментарий, если Вы скачали У холмов есть глаза 2 через торрент бесплатно! Внесите свою лепту в развитие PiratBit!
    Комментировать посты могут только пользователи прошедшие не сложную регистрацию
    Показать сообщения:    

    У холмов есть глаза 2 через торрент
    Скачать бесплатно У холмов есть глаза 2
    У холмов есть глаза 2 скачать торрент
    У холмов есть глаза 2 смотреть онлайн
    Cкачать фильм У холмов есть глаза 2 бесплатно
    У холмов есть глаза 2 скачать торрент в хорошем качестве
    У холмов есть глаза 2 смотреть онлайн бесплатно в хорошем качестве


    Вы не можете начинать темы
    Вы не можете отвечать на сообщения
    Вы не можете редактировать свои сообщения
    Вы не можете удалять свои сообщения
    Вы не можете голосовать в опросах
    Вы не можете прикреплять файлы к сообщениям
    Вы можете скачивать файлы