Ссылка на приватное зеркало нашего сайта всего за 1$. Внимание количество ограничено!!!

2 сезон

iTunes

1 сезон

1

2 сезон

2 сезон

iTunes

1 сезон

RePack

30

Ultimate

ВАЖНО

ИГРА 18+

pack

RePack

MK11
pack

Забери бонус

RePack

jed

!!Акция!!

Alien_Rage

RePack

fifa19

RePack

Assassins Creed: Odyssey

RePack

NEED FOR SPEED™ PAYBACK

4 сезон

9 сезон

Бесстыжие 9 сезон

Все сериалы

все сериалы на PB.wtf

RePack

FAR CRY 5
  

Приключения медведя Бригсби / Brigsby Bear (Дэйв МакКери) [2017, Драма, комедия, BD Remux 1080p] MVO [Лицензия] pb.wtf

Приключения медведя Бригсби через торрент pb.wtf

Раздают: 1 [ 0 KB/s ]
Размер: 19.58 GB | Добавлен: 3 года назад | Торрент скачан:33 раза
Скачать  

08-11-2017 13:16 Приключения медведя Бригсби Скачать торрент  

Приключения медведя Бригсби / Brigsby BearГод выпуска: 2017
Страна: США
Жанр: Драма, комедия
Продолжительность: 01:37:12
Перевод: Профессиональный многоголосый [Лицензия]
Субтитры: Русские, английские

Режиссер: Дэйв МакКери

rating

В ролях:

Марк Хэмилл, Клер Дэйнс, Кайл Муни, Грег Киннир, Энди Сэмберг, Микейла Уоткинс, Кристофер Салливан, Хорхе Лендеборг мл., Крис Провост, Райан Симпкинс

Описание:

«Приключения медведя Бригсби» — детская телепередача, снятая для одного-единственного зрителя: Джеймса. Когда передача внезапно прекращается, жизнь Джеймса меняется навсегда, и он решает закончить историю самостоятельно.

Качество: BD Remux 1080p
Формат: MKV
Видео кодек: H.264
Аудио кодек: AC3

Видео: MPEG-4 AVC, 1920x1080, 24.9 Mbit/s, 23.976 fps
Аудио#1: 48 kHz, AC3, 5.1, 640 Kbps | Лицензия | RUS |
Аудио#2: 48 kHz, DTS-HD MA, 5.1, 3313 Kbps | Оригинал | ENG |

Релиз от:
скриншот   скриншот   скриншот   скриншот   скриншот  

General
Unique ID : 175034197391087961216490492954081141875 (0x83AE5C366087B2C483947A6B76D6A473)
Complete name : G:VideoSSDBrigsby.Bear.2017.BDREMUX.1080p.ExKinoRay.mkv
Format : Matroska
Format version : Version 4 / Version 2
File size : 19.6 GiB
Duration : 1 h 37 min
Overall bit rate mode : Variable
Overall bit rate : 28.8 Mb/s
Encoded date : UTC 2017-11-06 15:49:46
Writing application : mkvmerge v17.0.0 ('Be Ur Friend') 64-bit
Writing library : libebml v1.3.5 + libmatroska v1.4.8

Video
ID : 1
Format : AVC
Format/Info : Advanced Video Codec
Format profile : High@L4.1
Format settings : CABAC / 2 Ref Frames
Format settings, CABAC : Yes
Format settings, RefFrames : 2 frames
Codec ID : V_MPEG4/ISO/AVC
Duration : 1 h 37 min
Bit rate mode : Variable
Bit rate : 24.9 Mb/s
Width : 1 920 pixels
Height : 1 080 pixels
Display aspect ratio : 16:9
Frame rate mode : Constant
Frame rate : 23.976 (24000/1001) FPS
Color space : YUV
Chroma subsampling : 4:2:0
Bit depth : 8 bits
Scan type : Progressive
Bits/(Pixel*Frame) : 0.500
Stream size : 16.9 GiB (86%)
Language : English
Default : Yes
Forced : No

Audio #1
ID : 2
Format : AC-3
Format/Info : Audio Coding 3
Format settings, Endianness : Big
Codec ID : A_AC3
Duration : 1 h 37 min
Bit rate mode : Constant
Bit rate : 640 kb/s
Channel(s) : 6 channels
Channel positions : Front: L C R, Side: L R, LFE
Sampling rate : 48.0 kHz
Frame rate : 31.250 FPS (1536 SPF)
Bit depth : 16 bits
Compression mode : Lossy
Stream size : 445 MiB (2%)
Title : Dub
Language : Russian
Service kind : Complete Main
Default : Yes
Forced : No

Audio #2
ID : 3
Format : DTS
Format/Info : Digital Theater Systems
Format profile : MA / Core
Mode : 16
Format settings, Endianness : Big
Codec ID : A_DTS
Duration : 1 h 37 min
Bit rate mode : Variable / Constant
Bit rate : 3 313 kb/s / 1 509 kb/s
Channel(s) : 6 channels
Channel positions : Front: L C R, Side: L R, LFE
Sampling rate : 48.0 kHz
Frame rate : 93.750 FPS (512 SPF)
Bit depth : 24 bits
Compression mode : Lossless / Lossy
Stream size : 2.25 GiB (11%)
Title : Original
Language : English
Default : No
Forced : No

Text #1
ID : 4
Format : UTF-8
Codec ID : S_TEXT/UTF8
Codec ID/Info : UTF-8 Plain Text
Duration : 1 h 36 min
Bit rate : 80 b/s
Count of elements : 1292
Stream size : 56.4 KiB (0%)
Title : Full
Language : Russian
Default : No
Forced : No

Text #2
ID : 5
Format : UTF-8
Codec ID : S_TEXT/UTF8
Codec ID/Info : UTF-8 Plain Text
Duration : 1 h 35 min
Bit rate : 61 b/s
Count of elements : 1260
Stream size : 42.8 KiB (0%)
Title : Full
Language : English
Default : No
Forced : No

Menu
00:00:00.000 : en:Chapter 1
00:08:09.489 : en:Chapter 2
00:13:12.833 : en:Chapter 3
00:18:24.770 : en:Chapter 4
00:23:54.641 : en:Chapter 5
00:30:40.255 : en:Chapter 6
00:40:48.404 : en:Chapter 7
00:44:56.694 : en:Chapter 8
00:49:24.336 : en:Chapter 9
00:55:22.444 : en:Chapter 10
00:59:08.836 : en:Chapter 11
01:04:06.676 : en:Chapter 12
01:08:44.745 : en:Chapter 13
01:15:22.351 : en:Chapter 14
01:23:22.288 : en:Chapter 15
01:27:14.896 : en:Chapter 16

pb.wtf



Скачать Приключения медведя Бригсби через торрент http://s019.radikal.ru/i630/1711/c0/f2633434cf6c.jpg Скачать фильм Приключения медведя Бригсби через торрент бесплантно в хорошем качестве Описание: «Приключения медведя Бригсби» — детская телепередача, снятая для одного-единственного зрителя: Джеймса. Когда передача внезапно ... 10 10 4
Торрент: Зарегистрирован [2017-11-08 13:16] · скачан: 33 раз
Статус: √ проверено
Размер: 19.58 GB
Как cкачать? Как скачать Приключения медведя Бригсби через торрент | qTorrent

% Раздел Тема Автор DL S | L
Фильмы 2017 [DVDrip, WEB-DLRip, HDrip] (DUB, MVO) [ 1.46 GB ] медведя Бригсби / Brigsby Bear [2017 HDRip] MVO [] - ExKinoRay Enigma2010 Скачать
5 | 0
T Релизы по Парсеру [Игры, Сериалы и Фильмы и другое...] [ 5.38 GB ] медведя Бригсби / Brigsby Bear [2017 BDRip 720p] [VO] killermax2013 Скачать
1 | 0
Фильмы с авторской озвучкой [ 1.46 GB ] медведя Бригсби / Brigsby Bear [2017 HDRip] AVO [BadBajo] - ExKinoRay Enigma2010 Скачать
1 | 0

28-11-2019 20:33  

Отключить всю рекламу на сайте

    Дорогой пользователь! Огромная просьба, поблагодарите релизера, оцените раздачу и оставьте свои комментарий, если Вы скачали Приключения медведя Бригсби через торрент бесплатно! Внесите свою лепту в развитие PiratBit!
    Комментировать посты могут только пользователи прошедшие не сложную регистрацию
    Показать сообщения:    

    Приключения медведя Бригсби через торрент
    Скачать бесплатно Приключения медведя Бригсби
    Приключения медведя Бригсби скачать торрент
    Приключения медведя Бригсби смотреть онлайн
    Cкачать фильм Приключения медведя Бригсби бесплатно
    Приключения медведя Бригсби скачать торрент в хорошем качестве
    Приключения медведя Бригсби смотреть онлайн бесплатно в хорошем качестве


    Вы не можете начинать темы
    Вы не можете отвечать на сообщения
    Вы не можете редактировать свои сообщения
    Вы не можете удалять свои сообщения
    Вы не можете голосовать в опросах
    Вы не можете прикреплять файлы к сообщениям
    Вы можете скачивать файлы