2 сезон

iTunes

MVO

1

2 сезон

iTunes

iTunes

1 сезон

RePack

30

Ultimate

ВАЖНО

ИГРА 18+

pack

RePack

MK11
pack

Легкие деньги

RePack

jed

RePack

fifa19

RePack

RDR2

RePack

NEED FOR SPEED™ PAYBACK

4 сезон

9 сезон

Бесстыжие 9 сезон

Все сериалы

все сериалы на PB.wtf

RePack

FAR CRY 5

Anonymous, добрый день, мы не успеваем собрать деньги на оплату серверов за декабрь и январь, помогите нам пожалуйста в это трудное время. В качестве благодарности мы отключим Вам всю рекламу на сайте (укажите свой ник в строку Ваше имя)!

×
  
Magnet ссылка

Взрывная блондинка / Atomic Blonde (Дэвид Литч) [2017, Боевик, триллер, детектив, BDRip-AVC] DUB [iTunes] pb.wtf

Взрывная блондинка через торрент pb.wtf

Размер: 2.31 GB | Добавлен: 3 года 2 мес. назад | Торрент скачан:312 раз
Скачать  

08-11-2017 16:10 Взрывная блондинка Скачать торрент  

Взрывная блондинка / Atomic BlondeГод выпуска: 2017
Страна: США
Жанр: Боевик, триллер, детектив
Продолжительность: 01:55:34
Перевод: Дублированный | iTunes
Субтитры: Русские (форс. на нем.речь), Английские
Реклама: Отсутствует

Режиссер: Дэвид Литч

rating

В ролях:

Шарлиз Терон, Джеймс МакЭвой, Эдди Марсан, Джон Гудмен, Тоби Джонс, Джеймс Фолкнер, Роланд Мёллер, София Бутелла, Билл Скарсгард, Сэм Харгрейв

Описание:

1989 год. Берлин перед падением тяжкого наследия советского режима. Лоррейн Бротон - суперагент британской разведки, спортсменка, умница и - просто красавица, по заданию партии и правительства ищет некую микропленку со списком всех тайных агентов Запада. В своих поисках она вынуждена объединиться с главой берлинской резидентуры Дэвидом Персивалем, который только с виду интеллигентный молодой человек, аккуратный, вежливый и предупредительный. Вместе они противостоят идейным агентам КГБ и прочим суккубам, мечтающим заполучить вожделенный список и повернуть ход сражения в Холодной войне в свою пользу.

Качество: BDRip-AVC
Формат: MKV
Видео кодек: H.264
Аудио кодек: AC3

Видео: 1024x428 (2.40:1), 23,976 fps, x264 ~2049 kbps avg, 0.195 bit/pixel
Аудио#1: 48 kHz, AC3 Dolby Digital, 3/2 (L,C,R,l,r) + LFE ch, ~384.00 kbps avg | RUS (iTunes)
Аудио#2: 48 kHz, AC3 Dolby Digital, 3/2 (L,C,R,l,r) + LFE ch, ~448.00 kbps avg | ENG
скриншот   скриншот   скриншот   скриншот   скриншот   скриншот  

Общее
Уникальный идентификатор : 232700549372412056611805833994022911556 (0xAF107EE05FA1DD5AB06C6BF434577E44)
Полное имя : E:OlLanDGroupAtomic.Blonde.2017.BDRip(AVC).OlLanDGroup.mkv
Формат : Matroska
Версия формата : Version 2
Размер файла : 2,31 Гбайт
Продолжительность : 1 ч. 54 м.
Общий поток : 2882 Кбит/сек
Название фильма : Atomic.Blonde.2017 #TorpedoUK#
Дата кодирования : UTC 2017-11-08 13:48:55
Программа кодирования : mkvmerge v7.8.0 ('River Man') 32bit built on Apr 3 2015 12:11:22
Библиотека кодирования : libebml v1.3.1 + libmatroska v1.4.2

Видео
Идентификатор : 1
Формат : AVC
Формат/Информация : Advanced Video Codec
Профиль формата : High@L4.1
Параметр CABAC формата : Да
Параметр ReFrames формата : 10 кадров
Идентификатор кодека : V_MPEG4/ISO/AVC
Продолжительность : 1 ч. 54 м.
Битрейт : 2049 Кбит/сек
Ширина : 1024 пикселя
Высота : 428 пикселей
Соотношение сторон : 2,40:1
Режим частоты кадров : Постоянный
Частота кадров : 23,976 (24000/1001) кадра/сек
Цветовое пространство : YUV
Субдискретизация насыщенности : 4:2:0
Битовая глубина : 8 бит
Тип развёртки : Прогрессивная
Бит/(Пиксели*Кадры) : 0.195
Размер потока : 1,60 Гбайт (69%)
Библиотека кодирования : x264 core 146 r2538 121396c
Настройки программы : cabac=1 / ref=10 / deblock=1:-2:-3 / analyse=0x3:0x133 / me=umh / subme=11 / psy=1 / psy_rd=0.97:0.07 / mixed_ref=1 / me_range=48 / chroma_me=1 / trellis=2 / 8x8dct=1 / cqm=0 / deadzone=21,11 / fast_pskip=1 / chroma_qp_offset=-3 / threads=6 / lookahead_threads=1 / sliced_threads=0 / nr=0 / decimate=1 / interlaced=0 / bluray_compat=0 / constrained_intra=0 / bframes=10 / b_pyramid=2 / b_adapt=2 / b_bias=0 / direct=3 / weightb=1 / open_gop=0 / weightp=2 / keyint=240 / keyint_min=23 / scenecut=40 / intra_refresh=0 / rc_lookahead=40 / rc=2pass / mbtree=0 / bitrate=2049 / ratetol=1.0 / qcomp=0.60 / qpmin=0 / qpmax=69 / qpstep=4 / cplxblur=20.0 / qblur=0.5 / vbv_maxrate=50000 / vbv_bufsize=62500 / nal_hrd=none / filler=0 / ip_ratio=1.40 / pb_ratio=1.30 / aq=1:1.00
Язык : English
Default : Да
Forced : Нет

Аудио #1
Идентификатор : 2
Формат : AC-3
Формат/Информация : Audio Coding 3
Расширение режима : CM (complete main)
Параметр Endianness формата : Big
Идентификатор кодека : A_AC3
Продолжительность : 1 ч. 54 м.
Вид битрейта : Постоянный
Битрейт : 384 Кбит/сек
Каналы : 6 каналов
Расположение каналов : Front: L C R, Side: L R, LFE
Частота : 48,0 КГц
Частота кадров : 31,250 кадров/сек (1536 spf)
Битовая глубина : 16 бит
Метод сжатия : С потерями
Размер потока : 315 Мбайт (13%)
Заголовок : Dub
Язык : Russian
Default : Да
Forced : Нет

Аудио #2
Идентификатор : 3
Формат : AC-3
Формат/Информация : Audio Coding 3
Расширение режима : CM (complete main)
Параметр Endianness формата : Big
Идентификатор кодека : A_AC3
Продолжительность : 1 ч. 54 м.
Вид битрейта : Постоянный
Битрейт : 448 Кбит/сек
Каналы : 6 каналов
Расположение каналов : Front: L C R, Side: L R, LFE
Частота : 48,0 КГц
Частота кадров : 31,250 кадров/сек (1536 spf)
Битовая глубина : 16 бит
Метод сжатия : С потерями
Размер потока : 368 Мбайт (16%)
Заголовок : Original
Язык : English
Default : Нет
Forced : Нет

Текст #1
Идентификатор : 4
Формат : UTF-8
Идентификатор кодека : S_TEXT/UTF8
Идентификатор кодека/Информация : UTF-8 Plain Text
Заголовок : Forced
Язык : Russian
Default : Да
Forced : Нет

Текст #2
Идентификатор : 5
Формат : UTF-8
Идентификатор кодека : S_TEXT/UTF8
Идентификатор кодека/Информация : UTF-8 Plain Text
Заголовок : Full
Язык : English
Default : Нет
Forced : Нет

Меню
00:00:00.000 : en:Chapter 1
00:06:47.990 : en:Chapter 2
00:11:03.162 : en:Chapter 3
00:18:17.221 : en:Chapter 4
00:24:15.579 : en:Chapter 5
00:27:47.165 : en:Chapter 6
00:32:50.009 : en:Chapter 7
00:36:20.094 : en:Chapter 8
00:40:46.152 : en:Chapter 9
00:47:55.664 : en:Chapter 10
00:53:13.481 : en:Chapter 11
00:59:54.090 : en:Chapter 12
01:03:32.767 : en:Chapter 13
01:08:03.788 : en:Chapter 14
01:10:52.414 : en:Chapter 15
01:18:27.452 : en:Chapter 16
01:24:28.271 : en:Chapter 17
01:32:44.267 : en:Chapter 18
01:42:06.245 : en:Chapter 19
01:48:21.077 : en:Chapter 20

pb.wtf



Скачать Взрывная блондинка через торрент http://lostpix.com/img/2017-10/27/oncxcpw6szrqnl4n7twjx67n1.jpg Скачать фильм Взрывная блондинка через торрент бесплантно в хорошем качестве Описание: 1989 год. Берлин перед падением тяжкого наследия советского режима. Лоррейн Бротон - суперагент британской разведки, спортсменка, ... 8.8 10 8
Info! Золотая раздача, скачанное не засчитывается.
Торрент: Зарегистрирован [2017-11-08 16:10] · скачан: 312 раз
Статус: √ проверено
Размер: 2.31 GB
Как cкачать? Как скачать Взрывная блондинка через торрент | UTorrent

% Раздел Тема Автор DL S | L
Ultra HD (UHD: 2K, 4K, 8K) — видео сверхвысокой чёткости [ 43.86 GB ] Взрывная блондинка / Atomic Blonde [2017 UHD BDRemux 2160p] [Dolby Vision TV] bober100 Скачать
1 | 0
Фильмы 2017 [DVDrip, WEB-DLRip, HDrip] (DUB, MVO) [ 2.11 GB ] Взрывная блондинка / Atomic Blonde [2017 WEB-DLRip-AVC] MVO - ExKinoRay Enigma2010 Скачать
2 | 0
Ultra HD (UHD: 2K, 4K, 8K) — видео сверхвысокой чёткости [ 50.03 GB ] Взрывная блондинка / Atomic Blonde [2017 UHD BDRemux 2160p] [Dolby Vision] sheker187 Скачать
1 | 0
Фильмы с авторской озвучкой [ 2.06 GB ] Взрывная блондинка / Убойная блондинка / Atomic Blonde [2017 BDRip] [AVO] killermax2013 Скачать
1 | 0
Фильмы (WEB-DL 720p, 1080p) [ 7.1 GB ] Взрывная блондинка / Atomic Blonde [2017 WEB-DL 1080p] bober100 Скачать
1 | 0
Фильмы с авторской озвучкой [ 2.3 GB ] Взрывная блондинка / Atomic Blonde [2017 BDRip-AVC] AVO [Есарев] - ExKinoRay Enigma2010 Скачать
1 | 0
Ultra HD (UHD: 2K, 4K, 8K) — видео сверхвысокой чёткости [ 41.32 GB ] Взрывная блондинка / Atomic Blonde [2017 UHD BDRemux 2160p] +MVO [Paradox&Omskbird] bober100 Скачать
1 | 0

28-11-2019 20:33  

Отключить всю рекламу на сайте

    Дорогой пользователь! Огромная просьба, поблагодарите релизера, оцените раздачу и оставьте свои комментарий, если Вы скачали Взрывная блондинка через торрент бесплатно! Внесите свою лепту в развитие PiratBit!
    Комментировать посты могут только пользователи прошедшие не сложную регистрацию
    Показать сообщения:    

    Взрывная блондинка через торрент
    Скачать бесплатно Взрывная блондинка
    Взрывная блондинка скачать торрент
    Взрывная блондинка смотреть онлайн
    Cкачать фильм Взрывная блондинка бесплатно
    Взрывная блондинка скачать торрент в хорошем качестве
    Взрывная блондинка смотреть онлайн бесплатно в хорошем качестве


    Вы не можете начинать темы
    Вы не можете отвечать на сообщения
    Вы не можете редактировать свои сообщения
    Вы не можете удалять свои сообщения
    Вы не можете голосовать в опросах
    Вы не можете прикреплять файлы к сообщениям
    Вы можете скачивать файлы