новый адрес пиратбит piratbit
Мега распродажа FORZA HORIZON 4 ULTIMATE+ВСЕ DLC+ОНЛАЙН всего за 499р. 349 руб. (супер цена). Внимание количество ограничено!!!

iTunes

1+1

iTunes

мы

iTunes

1

iTunes

Чернобыль

iTunes

Ральф против интернета

Лицензия

ПШазам

Лицензия

Игра престолов

Лицензия

30
pack

ВАЖНО

!!Акция!!

Alien_RageХит недели

RePack

Resident Evil 21

ИГРА 18+

pack

RePack

Metro:Exodus

!!Акция!!

Alien_Rage

RePack

fifa19

RePack

Assassins Creed: Odyssey

RePack

NEED FOR SPEED™ PAYBACK

3 сезон

9 сезон

Бесстыжие 9 сезон

Все сериалы

все сериалы на PB.wtf

RePack

FAR CRY 5
Ребята, катастрофически не хватает 1900р. для оплаты серверов за Октябрь (всвязи с блокировками трафик упал в 3 раза), 1-2р., выручайте.
  

Поднятая целина (01-03 серия из 03) (Александр Иванов) [1959-1961, СССР, драма, DVDRip от AVP Studio] pb.wtf

Поднятая целина через торрент pb.wtf

Размер: 3.71 GB | Добавлен: 2 года назад | Торрент скачан:23 раза
Скачать  

09-11-2017 11:27 Поднятая целина Скачать торрент  

Поднятая целина
Страна: СССР
Производство: Ленфильм

Жанр: драма
Год выпуска: 1959-1961
Продолжительность: 04:45:31 (01:29:35 + 01:35:24 + 01:40:32)

Перевод: не требуется
Субтитры: нет
Оригинальная аудиодорожка: русский

Режиссер: Александр Иванов

В ролях:
Пётр Чернов, Евгений Матвеев, Фёдор Шмаков, Владимир Дорофеев, Людмила Хитяева, Пётр Глебов, Виктор Чекмарёв, Иосиф Кутянский, Леонид Кмит, Олег Ярошенко, Николай Крючков, Андрей Абрикосов...
Полный список актёров

Описание:
Режиссер собрал в картине поистине звездный ансамбль - Евгений Матвеев, Петр Глебов, Игорь Дмитриев, Евгений Лебедев, Николай Крючков, Людмила Хитяева, - что сделало фильм лидером проката 1960 года (30,2 млн зрителей). И сегодня зрителя захватывает накал страстей, глубина характеров и прекрасная игра актеров, из которых хочется особенно выделить Евгения Матвеева. Его Макар Нагульнов стал поистине народным героем и всеобщим любимцем.

Исходник: DVD9 + DVD5 R5
Качество видео: DVDRip
Формат видео: AVI

Видео: 688х512 (4:3), 25 fps, XviD ~ 1661 kbps avg, 0.189 bit/pixel
Аудио: 48 kHz, Dolby Digital AC3 2.0, 192 kbps

Раздача от:
Общее
Полное имя : Podnyataya.celina.1959.DVDRip_[New-team]_by_AVP_Studio\Серия 02.avi
Формат : AVI
Формат/Информация : Audio Video Interleave
Размер файла : 1,24 Гбайт
Продолжительность : 1 ч. 35 м.
Общий поток : 1863 Кбит/сек
Программа кодирования : VirtualDubMod 1.5.10.3 | www.virtualdub-fr.org || (build 2550/release)
Библиотека кодирования : VirtualDubMod build 2550/release

Видео
Идентификатор : 0
Формат : MPEG-4 Visual
Профиль формата : Advanced Simple@L5
Параметр BVOP формата : 1
Параметр QPel формата : Нет
Параметр GMC формата : Без точки перехода
Параметр матрицы формата : Выборочная
Идентификатор кодека : XVID
Идентификатор кодека/Подсказка : XviD
Продолжительность : 1 ч. 35 м.
Битрейт : 1661 Кбит/сек
Ширина : 688 пикселей
Высота : 512 пикселей
Соотношение сторон : 4:3
Частота кадров : 25,000 кадров/сек
Цветовое пространство : YUV
Субдискретизация насыщенности : 4:2:0
Битовая глубина : 8 бит
Тип развёртки : Прогрессивная
Метод сжатия : С потерями
Бит/(Пиксели*Кадры) : 0.189
Размер потока : 1,11 Гбайт (89%)
Библиотека кодирования : XviD 73

Аудио
Идентификатор : 1
Формат : AC-3
Формат/Информация : Audio Coding 3
Параметр Endianness формата : Big
Идентификатор кодека : 2000
Продолжительность : 1 ч. 35 м.
Вид битрейта : Постоянный
Битрейт : 192 Кбит/сек
Каналы : 2 канала
Расположение каналов : Front: L R
Частота : 48,0 КГц
Частота кадров : 31,250 кадров/сек (1536 SPF)
Битовая глубина : 16 бит
Метод сжатия : С потерями
Размер потока : 131 Мбайт (10%)
Выравнивание : Разделение по промежуткам
Продолжительность промежутка : 40 мс. (1,00 видеокадр)
Время предзагрузки промежутка : 500 мс
pb.wtf



Скачать Поднятая целина через торрент http://s009.radikal.ru/i310/1711/75/d2244a5e1ec8.png Скачать фильм Поднятая целина через торрент бесплантно в хорошем качестве Описание:Режиссер собрал в картине поистине звездный ансамбль - Евгений Матвеев, Петр Глебов, Игорь Дмитриев, Евгений Лебедев, Николай ... 5 10 1
Info! Золотая раздача, скачанное не засчитывается.
Торрент: Зарегистрирован [2017-11-09 11:27] · скачан: 23 раз
Статус: √ проверено
Размер: 3.71 GB
Как cкачать? Как скачать Поднятая целина через торрент | qTorrent

% Раздел Тема Автор DL S | L
Кино СССР [ 3.72 GB ] Поднятая целина [1959-1961 СССР DVDRip-AVC от AVP Studio] AVP Studio Скачать
1 | 0
Кино СССР [ 4.12 GB ] Поднятая целина [1959 DVDRip] ФёдорOFF Скачать
1 | 0


>> Регистрируемся здесь <<






Отзывы и комментарии о схеме читаем и пишем здесь: ---> Отзывы и комментарии о схеме

Новые благодарочки в телеграм довольных пользователей:
скриншот   скриншот   скриншот   скриншот   скриншот
    Дорогой пользователь! Огромная просьба, поблагодарите релизера, оцените раздачу и оставьте свои комментарий, если Вы скачали Поднятая целина через торрент бесплатно! Внесите свою лепту в развитие PiratBit!
    Комментировать посты могут только пользователи прошедшие не сложную регистрацию
    Показать сообщения:    

    Поднятая целина через торрент
    Скачать бесплатно Поднятая целина
    Поднятая целина скачать торрент
    Поднятая целина смотреть онлайн
    Cкачать фильм Поднятая целина бесплатно
    Поднятая целина скачать торрент в хорошем качестве
    Поднятая целина смотреть онлайн бесплатно в хорошем качестве


    Вы не можете начинать темы
    Вы не можете отвечать на сообщения
    Вы не можете редактировать свои сообщения
    Вы не можете удалять свои сообщения
    Вы не можете голосовать в опросах
    Вы не можете прикреплять файлы к сообщениям
    Вы можете скачивать файлы