2 сезон

iTunes

1 сезон

1

iTunes

iTunes

iTunes

1 сезон

RePack

30

ИГРА 18+

pack

ВАЖНО

!!Акция!!

Alien_RageХит недели

RePack

MK11
pack

Забери бонус

RePack

jed

!!Акция!!

Alien_Rage

RePack

fifa19

RePack

Assassins Creed: Odyssey

RePack

NEED FOR SPEED™ PAYBACK

4 сезон

9 сезон

Бесстыжие 9 сезон

Все сериалы

все сериалы на PB.wtf

RePack

FAR CRY 5
  

Боевой конь / War Horse (Стивен Спилберг) [2011, драма, военный, BDRip 720p by msltel] DUB pb.wtf

Боевой конь через торрент pb.wtf

Размер: 4.99 GB | Добавлен: 2 года 11 мес. назад | Торрент скачан:119 раз
Скачать  

10-11-2017 06:55 Боевой конь Скачать торрент  

Название: Боевой конь
Оригинальное название: War Horse
Год выпуска: 2011
Страна: США, Индия
Жанр: драма, военный
Продолжительность: 02:26:39
Перевод: дублированный

Режиссер: Стивен Спилберг
В ролях: Джереми Ирвин, Том Хиддлстон, Питер Муллан, Дэвид Тьюлис, Эмили Уотсон, Нильс Ареструп, Бенедикт Камбербэтч, Селин Бакенс, Тоби Кеббелл, Патрик Кеннеди, Леонард Кэроу, Дэвид Кросс (II), Мэтт Милн, Роберт Эммс, Эдди Марсан, Николас Бро, Райнер Бок, Хиннерк Шонеманн, Гари Лайдон, Джофф Белл, Лиам Каннингэм, Себастьян Хюльк, Джерард МакСорли, Тони Питтс, Ирфан Хуссейн, Пип Торренс, Филипп Наон, Жан-Клод Лека, Джастин Бретт, Симус О’Нейлл, Пэт Лаффан, Питер О’Коннор, Гуннар Этли Котэри, Джулиан

О фильме: Отец семейства покупает молодого скакуна. Его сын Альберт берётся объездить коня и нарекает его Джои. Так юноша и лошадь становятся друзьями, понимающими друг друга с полуслова. Начинается Первая мировая война, и скакуна забирают для нужд фронта. В первой же битве конь попадает в плен к немцам. Пришла очередь Альберта идти на войну, где происходит его встреча с Джои на разных сторонах фронта в величайшем сражении войны на берегах реки Сом. Смогут ли они помочь друг другу и вернуться в родной Девоншир... Фильм снят по мотивам романа Майкла Морпурго «Боевой конь» (War Horse, 1982).



Качество: BDRip 720p
Формат: MKV
Видео: MPEG-4 AVC, 4041 Kбит/с, 1280x534, 23.976 кадр/с
Аудио 1: русский, AC3, 384 kbps, 6 ch [дублированный, R5]
Аудио 2: английский, AC3, 448 kbps, 6 ch, 48 kHz [оригинал]
Субтитры 1: русские
Субтитры 2: английские
Неименованные главы/чаптеры.
Общее
Уникальный идентификатор : 215420236608626757303375275050993722599 (0xA2106DADAA0209C4B3F54BEFCC0824E7)
Полное имя : D:\Video\Боевой конь.2011.BDRip.720p by msltel.mkv
Формат : Matroska
Версия формата : Version 4 / Version 2
Размер файла : 4,99 Гбайт
Продолжительность : 2 ч. 26 м.
Общий поток : 4875 Кбит/сек
Название фильма : Rip by msltel
Дата кодирования : UTC 2017-11-10 02:37:12
Программа кодирования : mkvmerge v8.2.0 ('World of Adventure') 64bit
Библиотека кодирования : libebml v1.3.1 + libmatroska v1.4.2

Видео
Идентификатор : 1
Формат : AVC
Формат/Информация : Advanced Video Codec
Профиль формата : High@L4.1
Настройки формата : CABAC / 9 Ref Frames
Параметр CABAC формата : Да
Параметр RefFrames формата : 9 кадров
Идентификатор кодека : V_MPEG4/ISO/AVC
Продолжительность : 2 ч. 26 м.
Битрейт : 4041 Кбит/сек
Ширина : 1280 пикселей
Высота : 534 пикселя
Соотношение сторон : 2,40:1
Режим частоты кадров : Постоянный
Частота кадров : 23,976 (24000/1001) кадра/сек
Цветовое пространство : YUV
Субдискретизация насыщенности : 4:2:0
Битовая глубина : 8 бит
Тип развёртки : Прогрессивная
Бит/(Пиксели*Кадры) : 0.247
Размер потока : 4,14 Гбайт (83%)
Библиотека кодирования : x264 core 146 r2538 121396c
Настройки программы : cabac=1 / ref=9 / deblock=1:-3:-2 / analyse=0x3:0x113 / me=umh / subme=11 / psy=1 / psy_rd=1.00:0.15 / mixed_ref=1 / me_range=32 / chroma_me=1 / trellis=2 / 8x8dct=1 / cqm=0 / deadzone=21,11 / fast_pskip=0 / chroma_qp_offset=-3 / threads=6 / lookahead_threads=1 / sliced_threads=0 / nr=0 / decimate=1 / interlaced=0 / bluray_compat=0 / constrained_intra=0 / bframes=8 / b_pyramid=2 / b_adapt=2 / b_bias=0 / direct=1 / weightb=1 / open_gop=0 / weightp=2 / keyint=230 / keyint_min=23 / scenecut=40 / intra_refresh=0 / rc_lookahead=40 / rc=crf / mbtree=0 / crf=18.3 / qcomp=0.60 / qpmin=0 / qpmax=69 / qpstep=4 / vbv_maxrate=62500 / vbv_bufsize=78125 / crf_max=0.0 / nal_hrd=none / filler=0 / ip_ratio=1.40 / pb_ratio=1.30 / aq=1:1.00
Язык : English
Default : Да
Forced : Нет

Аудио #1
Идентификатор : 2
Формат : AC-3
Формат/Информация : Audio Coding 3
Идентификатор кодека : A_AC3
Продолжительность : 2 ч. 26 м.
Вид битрейта : Постоянный
Битрейт : 384 Кбит/сек
Каналы : 6 каналов
Расположение каналов : Front: L C R, Side: L R, LFE
Частота : 48,0 КГц
Частота кадров : 31,250 кадров/сек (1536 SPF)
Битовая глубина : 16 бит
Метод сжатия : С потерями
Размер потока : 403 Мбайт (8%)
Заголовок : DUB R5
Язык : Russian
ServiceKind/String : Complete Main
Default : Да
Forced : Нет

Аудио #2
Идентификатор : 3
Формат : AC-3
Формат/Информация : Audio Coding 3
Идентификатор кодека : A_AC3
Продолжительность : 2 ч. 26 м.
Вид битрейта : Постоянный
Битрейт : 448 Кбит/сек
Каналы : 6 каналов
Расположение каналов : Front: L C R, Side: L R, LFE
Частота : 48,0 КГц
Частота кадров : 31,250 кадров/сек (1536 SPF)
Битовая глубина : 16 бит
Метод сжатия : С потерями
Размер потока : 470 Мбайт (9%)
Заголовок : original
Язык : English
ServiceKind/String : Complete Main
Default : Нет
Forced : Нет

Текст #1
Идентификатор : 4
Формат : UTF-8
Идентификатор кодека : S_TEXT/UTF8
Идентификатор кодека/Информация : UTF-8 Plain Text
Продолжительность : 2 ч. 16 м.
Битрейт : 63 бит/сек
ElementCount : 1232
Размер потока : 63,7 Кбайт (0%)
Заголовок : русские
Язык : Russian
Default : Нет
Forced : Нет

Текст #2
Идентификатор : 5
Формат : UTF-8
Идентификатор кодека : S_TEXT/UTF8
Идентификатор кодека/Информация : UTF-8 Plain Text
Продолжительность : 2 ч. 13 м.
Битрейт : 47 бит/сек
ElementCount : 1453
Размер потока : 46,0 Кбайт (0%)
Заголовок : английские
Язык : English
Default : Нет
Forced : Нет

Меню
00:00:00.000 : en:Chapter 1
00:04:31.104 : en:Chapter 2
00:09:31.320 : en:Chapter 3
00:13:57.002 : en:Chapter 4
00:17:45.230 : en:Chapter 5
00:22:29.097 : en:Chapter 6
00:29:16.963 : en:Chapter 7
00:34:17.180 : en:Chapter 8
00:37:49.934 : en:Chapter 9
00:41:30.196 : en:Chapter 10
00:47:19.002 : en:Chapter 11
00:51:48.814 : en:Chapter 12
00:56:03.151 : en:Chapter 13
01:01:19.175 : en:Chapter 14
01:04:04.048 : en:Chapter 15
01:05:51.030 : en:Chapter 16
01:14:04.565 : en:Chapter 17
01:18:01.009 : en:Chapter 18
01:25:34.379 : en:Chapter 19
01:29:48.007 : en:Chapter 20
01:35:29.682 : en:Chapter 21
01:45:23.275 : en:Chapter 22
01:51:06.659 : en:Chapter 23
02:00:06.157 : en:Chapter 24
02:07:38.275 : en:Chapter 25
02:15:12.270 : en:Chapter 26
02:18:10.949 : en:Chapter 27
pb.wtf



Скачать Боевой конь через торрент http://s019.radikal.ru/i627/1711/f3/45014939799d.jpg Скачать фильм Боевой конь через торрент бесплантно в хорошем качестве О фильме: Отец семейства покупает молодого скакуна. Его сын Альберт берётся объездить коня и нарекает его Джои. Так юноша и лошадь ... 10 10 2
Info! Золотая раздача, скачанное не засчитывается.
Торрент: Зарегистрирован [2017-11-10 06:55] · скачан: 119 раз
Статус: √ проверено
Размер: 4.99 GB
Как cкачать? Как скачать Боевой конь через торрент | qTorrent

% Раздел Тема Автор DL S | L
Фильмы [HD 720p, 1080p] (Хороший звук DUB, MVO) [ 13.25 GB ] Боевой конь / War Horse [2011 военный BDRip 1080p by msltel] DUB msltel Скачать
1 | 0
Фильмы 2012 [ 2.91 GB ] Боевой Конь / War Horse [2012 военный история BDRip-AVC от HQ-ViDEO DUB ] ~Relizer~ Скачать
1 | 0
Фильмы 2011 [ 2.18 GB ] Боевой конь / War Horse [2011 военный история HDRip DUB ] кэп Скачать
1 | 0
Фильмы 2011 [ 1.36 GB ] Боевой конь / War Horse [2011 военный история HDRip DUB ] WISE Скачать
1 | 0
Фильмы 2011 [ 2.1 GB ] Боевой конь / War Horse [2011 военный история HDRip-AVС] DUB stalonе Скачать
1 | 0
Фильмы [HD 720p, 1080p] (Хороший звук DUB, MVO) [ 7.33 GB ] Боевой Конь / War Horse [2012 военный BDRip DUB + Оригинал + Укр] ~Relizer~ Скачать
1 | 0

28-11-2019 20:33  

Отключить всю рекламу на сайте

    Дорогой пользователь! Огромная просьба, поблагодарите релизера, оцените раздачу и оставьте свои комментарий, если Вы скачали Боевой конь через торрент бесплатно! Внесите свою лепту в развитие PiratBit!
    Комментировать посты могут только пользователи прошедшие не сложную регистрацию
    Показать сообщения:    

    Боевой конь через торрент
    Скачать бесплатно Боевой конь
    Боевой конь скачать торрент
    Боевой конь смотреть онлайн
    Cкачать фильм Боевой конь бесплатно
    Боевой конь скачать торрент в хорошем качестве
    Боевой конь смотреть онлайн бесплатно в хорошем качестве


    Вы не можете начинать темы
    Вы не можете отвечать на сообщения
    Вы не можете редактировать свои сообщения
    Вы не можете удалять свои сообщения
    Вы не можете голосовать в опросах
    Вы не можете прикреплять файлы к сообщениям
    Вы можете скачивать файлы