новый адрес пиратбит piratbit
Мега распродажа FORZA HORIZON 4 ULTIMATE+ВСЕ DLC+ОНЛАЙН всего за 499р. 349 руб. (супер цена). Внимание количество ограничено!!!

iTunes

1+1

iTunes

мы

iTunes

1

iTunes

Чернобыль

iTunes

Ральф против интернета

Лицензия

ПШазам

Лицензия

Игра престолов

Лицензия

30
pack

ВАЖНО

!!Акция!!

Alien_RageХит недели

RePack

Resident Evil 21

ИГРА 18+

pack

RePack

Metro:Exodus

!!Акция!!

Alien_Rage

RePack

fifa19

RePack

Assassins Creed: Odyssey

RePack

NEED FOR SPEED™ PAYBACK

3 сезон

9 сезон

Бесстыжие 9 сезон

Все сериалы

все сериалы на PB.wtf

RePack

FAR CRY 5
Ребята, катастрофически не хватает 1900р. для оплаты серверов за Октябрь (всвязи с блокировками трафик упал в 3 раза), 1-2р., выручайте.
  

Судьба поэта (Борис Кимягаров) [1959, СССР, драма, биография, история, DVDRip от AVP Studio] pb.wtf

Судьба поэта через торрент pb.wtf

Размер: 1.09 GB | Добавлен: 2 года назад | Торрент скачан:15 раз
Скачать  

10-11-2017 07:32 Судьба поэта Скачать торрент  

Судьба поэта
Страна: СССР
Производство: Таджикфильм

Жанр: драма, биография, история
Год выпуска: 1959
Продолжительность: 01:41:45

Перевод: Не требуется
Cубтитры: нет
Оригинальная аудиодорожка: русский

Режиссер: Борис Кимягаров

В ролях:
Марат Арипов, Нозукмо Шомансурова, Абдульхайр Касымов, Махмуд Тахири, Абдулхамид Нурматов, Дильбар Касымова, Ходжакули Рахматуллаев, София Туйбаева, Шамси Джураев, Мухаммеджан Касымов, Г. Ниязов, К. Мирзоев, Захир Дусматов, Абдусалом Рахимов, Алим Ходжаев, Бахтали Сабзалиев, Анвар Тураев, Сталина Азаматова...
Об актёрах подробней

Описание:
О жизни и деятельности таджикского поэта Рудаки (ок. 860-941), родоначальника поэзии на фарси.
Когда Рудаки пришёл ко двору эмира Насра Второго, он был молод, но его стихи уже знали многие. Ведь он писал о том, что близко каждому - о любви, верности, дружбе, о прекрасной родной земле, - и писал на таджикском языке, понятном всем простым людям.

Исходник: DVD5 R5
Качество видео: DVDRip
Формат видео: AVI

Видео: 704х528 (4:3), 25 fps, XviD ~ 1331 kbps avg, 0.143 bit/pixel
Аудио: 48 kHz, Dolby Digital AC3 2.0, 192 kbps

Раздача от:
Общее
Полное имя : Sudba.poyeta.1959.DVDRip_[New-team]_by_AVP_Studio.avi
Формат : AVI
Формат/Информация : Audio Video Interleave
Размер файла : 1,09 Гбайт
Продолжительность : 1 ч. 41 м.
Общий поток : 1532 Кбит/сек
Программа кодирования : VirtualDubMod 1.5.10.3 | www.virtualdub-fr.org || (build 2550/release)
Библиотека кодирования : VirtualDubMod build 2550/release

Видео
Идентификатор : 0
Формат : MPEG-4 Visual
Профиль формата : Advanced Simple@L5
Параметр BVOP формата : 1
Параметр QPel формата : Нет
Параметр GMC формата : Без точки перехода
Параметр матрицы формата : Выборочная
Идентификатор кодека : XVID
Идентификатор кодека/Подсказка : XviD
Продолжительность : 1 ч. 41 м.
Битрейт : 1331 Кбит/сек
Ширина : 704 пикселя
Высота : 528 пикселей
Соотношение сторон : 4:3
Частота кадров : 25,000 кадров/сек
Цветовое пространство : YUV
Субдискретизация насыщенности : 4:2:0
Битовая глубина : 8 бит
Тип развёртки : Прогрессивная
Метод сжатия : С потерями
Бит/(Пиксели*Кадры) : 0.143
Размер потока : 968 Мбайт (87%)
Библиотека кодирования : XviD 73

Аудио
Идентификатор : 1
Формат : AC-3
Формат/Информация : Audio Coding 3
Параметр Endianness формата : Big
Идентификатор кодека : 2000
Продолжительность : 1 ч. 41 м.
Вид битрейта : Постоянный
Битрейт : 192 Кбит/сек
Каналы : 2 канала
Расположение каналов : Front: L R
Частота : 48,0 КГц
Частота кадров : 31,250 кадров/сек (1536 SPF)
Битовая глубина : 16 бит
Метод сжатия : С потерями
Размер потока : 140 Мбайт (13%)
Выравнивание : Разделение по промежуткам
Продолжительность промежутка : 40 мс. (1,00 видеокадр)
Время предзагрузки промежутка : 500 мс
pb.wtf



Скачать Судьба поэта через торрент http://s019.radikal.ru/i600/1711/11/faf0d202bc73.png Скачать фильм Судьба поэта через торрент бесплантно в хорошем качестве Описание:О жизни и деятельности таджикского поэта Рудаки (ок. 860-941), родоначальника поэзии на фарси.Когда Рудаки пришёл ко двору эмира ... 5 10 1
Info! Золотая раздача, скачанное не засчитывается.
Торрент: Зарегистрирован [2017-11-10 07:32] · скачан: 15 раз
Статус: √ проверено
Размер: 1.09 GB
Как cкачать? Как скачать Судьба поэта через торрент | qTorrent

% Раздел Тема Автор DL S | L
Кино СССР [ 1.09 GB ] Судьба поэта [1959 СССР биография история DVDRip-AVC от AVP Studio] AVP Studio Скачать
1 | 0
Кино СССР [ 746 MB ] Судьба поэта [1959 СССР биография история DVDRip от AVP Studio] AVP Studio Скачать
1 | 0


>> Регистрируемся здесь <<






Отзывы и комментарии о схеме читаем и пишем здесь: ---> Отзывы и комментарии о схеме

Новые благодарочки в телеграм довольных пользователей:
скриншот   скриншот   скриншот   скриншот   скриншот
    Дорогой пользователь! Огромная просьба, поблагодарите релизера, оцените раздачу и оставьте свои комментарий, если Вы скачали Судьба поэта через торрент бесплатно! Внесите свою лепту в развитие PiratBit!
    Комментировать посты могут только пользователи прошедшие не сложную регистрацию
    Показать сообщения:    

    Судьба поэта через торрент
    Скачать бесплатно Судьба поэта
    Судьба поэта скачать торрент
    Судьба поэта смотреть онлайн
    Cкачать фильм Судьба поэта бесплатно
    Судьба поэта скачать торрент в хорошем качестве
    Судьба поэта смотреть онлайн бесплатно в хорошем качестве


    Вы не можете начинать темы
    Вы не можете отвечать на сообщения
    Вы не можете редактировать свои сообщения
    Вы не можете удалять свои сообщения
    Вы не можете голосовать в опросах
    Вы не можете прикреплять файлы к сообщениям
    Вы можете скачивать файлы