2 сезон

iTunes

1 сезон

1

iTunes

iTunes

iTunes

1 сезон

RePack

30

ИГРА 18+

pack

ВАЖНО

!!Акция!!

Alien_RageХит недели

RePack

MK11
pack

Забери бонус

RePack

jed

!!Акция!!

Alien_Rage

RePack

fifa19

RePack

Assassins Creed: Odyssey

RePack

NEED FOR SPEED™ PAYBACK

4 сезон

9 сезон

Бесстыжие 9 сезон

Все сериалы

все сериалы на PB.wtf

RePack

FAR CRY 5
  

Как жениться и остаться холостым / Prete-moi ta main (Эрик Лартиго) [2006, мелодрама, комедия, BDRip 720p by msltel] DUB pb.wtf

Как жениться и остаться холостым через торрент pb.wtf

Размер: 4.14 GB | Добавлен: 2 года 11 мес. назад | Торрент скачан:142 раза
Скачать  

10-11-2017 09:03 Как жениться и остаться холостым Скачать торрент  

Название: Как жениться и остаться холостым
Оригинальное название: Prete-moi ta main
Год выпуска: 2006
Страна: Франция
Жанр: мелодрама, комедия
Продолжительность: 01:28:56
Перевод: дублированный

Режиссер: Эрик Лартиго
В ролях: Ален Шаба, Шарлотта Генсбур, Бернадетт Лафон, Владимир Йорданофф, Вероник Барро, Армелль Деги, Луиз Моно, Люси Мушель, Катя Левкович, Грегуар Эстерманн, Эрик Дебросс, Фред Бианкони, Кристоф Курочкин, Виржини Бордес, Мерием Сербах, Патрик Бордье

О фильме: Жизнь легка для 43-летнего и холостого Луи, взлелеянного матерью и пятью сестрами. Его счастье могло бы длиться всю жизнь, если бы его не решили, наконец-то, женить! И тогда хитрый Луи придумывает уловку...



Качество: BDRip 720p
Формат: MKV
Видео: MPEG-4 AVC, 5765 Кбит/с, 1280x690, 23.976 кадр/с
Аудио 1: русский, AC3, 448 kbps, 6 ch [дублированный]
Аудио 2: французский, AC3, 448 kbps, 6 ch, 48 kHz [оригинал]
Субтитры: русские
Неименованные главы/чаптеры.
Общее
Уникальный идентификатор : 209454516015680100983348778578704984863 (0x9D9378F1B548362597584021F075EB1F)
Полное имя : D:\Video\Как жениться и остаться холостым.2006.BDRip.720p by msltel.mkv
Формат : Matroska
Версия формата : Version 4 / Version 2
Размер файла : 4,14 Гбайт
Продолжительность : 1 ч. 28 м.
Общий поток : 6663 Кбит/сек
Название фильма : Rip by msltel
Дата кодирования : UTC 2017-11-09 12:12:20
Программа кодирования : mkvmerge v8.2.0 ('World of Adventure') 64bit
Библиотека кодирования : libebml v1.3.1 + libmatroska v1.4.2

Видео
Идентификатор : 1
Формат : AVC
Формат/Информация : Advanced Video Codec
Профиль формата : High@L4.1
Настройки формата : CABAC / 9 Ref Frames
Параметр CABAC формата : Да
Параметр RefFrames формата : 9 кадров
Идентификатор кодека : V_MPEG4/ISO/AVC
Продолжительность : 1 ч. 28 м.
Битрейт : 5765 Кбит/сек
Ширина : 1280 пикселей
Высота : 690 пикселей
Соотношение сторон : 1,85:1
Режим частоты кадров : Постоянный
Частота кадров : 23,976 (24000/1001) кадра/сек
Цветовое пространство : YUV
Субдискретизация насыщенности : 4:2:0
Битовая глубина : 8 бит
Тип развёртки : Прогрессивная
Бит/(Пиксели*Кадры) : 0.272
Размер потока : 3,58 Гбайт (87%)
Библиотека кодирования : x264 core 146 r2538 121396c
Настройки программы : cabac=1 / ref=9 / deblock=1:-3:-2 / analyse=0x3:0x113 / me=umh / subme=11 / psy=1 / psy_rd=1.00:0.15 / mixed_ref=1 / me_range=32 / chroma_me=1 / trellis=2 / 8x8dct=1 / cqm=0 / deadzone=21,11 / fast_pskip=0 / chroma_qp_offset=-3 / threads=6 / lookahead_threads=1 / sliced_threads=0 / nr=0 / decimate=1 / interlaced=0 / bluray_compat=0 / constrained_intra=0 / bframes=9 / b_pyramid=2 / b_adapt=2 / b_bias=0 / direct=1 / weightb=1 / open_gop=0 / weightp=2 / keyint=230 / keyint_min=23 / scenecut=40 / intra_refresh=0 / rc_lookahead=40 / rc=crf / mbtree=0 / crf=18.5 / qcomp=0.60 / qpmin=0 / qpmax=69 / qpstep=4 / vbv_maxrate=62500 / vbv_bufsize=78125 / crf_max=0.0 / nal_hrd=none / filler=0 / ip_ratio=1.40 / pb_ratio=1.30 / aq=1:1.00
Язык : French
Default : Да
Forced : Нет

Аудио #1
Идентификатор : 2
Формат : AC-3
Формат/Информация : Audio Coding 3
Идентификатор кодека : A_AC3
Продолжительность : 1 ч. 28 м.
Вид битрейта : Постоянный
Битрейт : 448 Кбит/сек
Каналы : 6 каналов
Расположение каналов : Front: L C R, Side: L R, LFE
Частота : 48,0 КГц
Частота кадров : 31,250 кадров/сек (1536 SPF)
Битовая глубина : 16 бит
Метод сжатия : С потерями
Размер потока : 285 Мбайт (7%)
Заголовок : DUB
Язык : Russian
ServiceKind/String : Complete Main
Default : Да
Forced : Нет

Аудио #2
Идентификатор : 3
Формат : AC-3
Формат/Информация : Audio Coding 3
Идентификатор кодека : A_AC3
Продолжительность : 1 ч. 28 м.
Вид битрейта : Постоянный
Битрейт : 448 Кбит/сек
Каналы : 6 каналов
Расположение каналов : Front: L C R, Side: L R, LFE
Частота : 48,0 КГц
Частота кадров : 31,250 кадров/сек (1536 SPF)
Битовая глубина : 16 бит
Метод сжатия : С потерями
Размер потока : 285 Мбайт (7%)
Заголовок : original
Язык : French
ServiceKind/String : Complete Main
Default : Нет
Forced : Нет

Текст
Идентификатор : 4
Формат : UTF-8
Идентификатор кодека : S_TEXT/UTF8
Идентификатор кодека/Информация : UTF-8 Plain Text
Продолжительность : 1 ч. 26 м.
Битрейт : 116 бит/сек
ElementCount : 1199
Размер потока : 73,7 Кбайт (0%)
Заголовок : русские
Язык : Russian
Default : Нет
Forced : Нет

Меню
00:00:00.000 : :Chapter 01
00:08:03.440 : :Chapter 02
00:15:26.799 : :Chapter 03
00:22:49.284 : :Chapter 04
00:29:35.440 : :Chapter 05
00:37:50.350 : :Chapter 06
00:46:26.282 : :Chapter 07
00:54:26.720 : :Chapter 08
01:01:40.112 : :Chapter 09
01:09:09.936 : :Chapter 10
01:16:54.234 : :Chapter 11
01:25:00.761 : :Chapter 12
01:28:57.332 : :Chapter 13
pb.wtf



Скачать Как жениться и остаться холостым через торрент http://s019.radikal.ru/i617/1711/55/aa27804178c8.jpg Скачать фильм Как жениться и остаться холостым через торрент бесплантно в хорошем качестве О фильме: Жизнь легка для 43-летнего и холостого Луи, взлелеянного матерью и пятью сестрами. Его счастье могло бы длиться всю жизнь, если ... 9.7 10 6
Info! Золотая раздача, скачанное не засчитывается.
Торрент: Зарегистрирован [2017-11-10 09:03] · скачан: 142 раз
Статус: √ проверено
Размер: 4.14 GB
Как cкачать? Как скачать Как жениться и остаться холостым через торрент | qTorrent

% Раздел Тема Автор DL S | L
Фильмы [HD 720p, 1080p] (Хороший звук DUB, MVO) [ 10.38 GB ] Как жениться и остаться холостым / Prete-moi ta main [2006 BDRip 1080p by msltel] DUB msltel Скачать
1 | 0

28-11-2019 20:33  

Отключить всю рекламу на сайте

    Дорогой пользователь! Огромная просьба, поблагодарите релизера, оцените раздачу и оставьте свои комментарий, если Вы скачали Как жениться и остаться холостым через торрент бесплатно! Внесите свою лепту в развитие PiratBit!
    Комментировать посты могут только пользователи прошедшие не сложную регистрацию
    Показать сообщения:    

    Как жениться и остаться холостым через торрент
    Скачать бесплатно Как жениться и остаться холостым
    Как жениться и остаться холостым скачать торрент
    Как жениться и остаться холостым смотреть онлайн
    Cкачать фильм Как жениться и остаться холостым бесплатно
    Как жениться и остаться холостым скачать торрент в хорошем качестве
    Как жениться и остаться холостым смотреть онлайн бесплатно в хорошем качестве


    Вы не можете начинать темы
    Вы не можете отвечать на сообщения
    Вы не можете редактировать свои сообщения
    Вы не можете удалять свои сообщения
    Вы не можете голосовать в опросах
    Вы не можете прикреплять файлы к сообщениям
    Вы можете скачивать файлы