Ссылка на приватное зеркало нашего сайта всего за 1$. Внимание количество ограничено!!!

2 сезон

iTunes

1 сезон

1

iTunes

iTunes

iTunes

1 сезон

RePack

30

ИГРА 18+

pack

ВАЖНО

!!Акция!!

Alien_RageХит недели

RePack

MK11
pack

Забери бонус

RePack

jed

!!Акция!!

Alien_Rage

RePack

fifa19

RePack

Assassins Creed: Odyssey

RePack

NEED FOR SPEED™ PAYBACK

4 сезон

9 сезон

Бесстыжие 9 сезон

Все сериалы

все сериалы на PB.wtf

RePack

FAR CRY 5
  

Эмоджи фильм / The Emoji Movie (Энтони Леондис) [2017 г., мультфильм, фантастика, комедия, приключения, семейный, HDRip, Дубляж "iTunes"] pb.wtf

Эмоджи фильм через торрент pb.wtf

Размер: 710 MB | Добавлен: 2 года 11 мес. назад | Торрент скачан:235 раз
Скачать  

10-11-2017 18:32 Эмоджи фильм Скачать торрент  

Эмоджи фильм / The Emoji Movie
Год выпуска: 2017
Страна: США / Columbia Pictures, LStar Capital, Sony Pictures Animation
Жанр: мультфильм, фантастика, комедия, приключения, семейный
Продолжительность: 01:26:21
Перевод: Дубляж (iTunes)

Режиссер: Энтони Леондис

rating

В ролях: ТиДжей Миллер, Джеймс Корден, Анна Фэрис, Майя Рудольф, Стивен Райт, Дженнифер Кулидж, Патрик Стюарт, Кристина Агилера, София Вергара, Рэйчел

Описание: Знаете ли вы, что внутри каждого смартфона есть красочный городок Текстополис, в котором живут эмоджи? И что они ужасно радуются, когда владелец телефона именно их выбирает для своего сообщения? Каждый из эмоджи отвечает лишь за одну эмоцию, и только Джин может выражать несколько эмоций сразу. Он очень хочет стать таким же, как и его собратья, и для этого вместе со своими друзьями пускается в увлекательное путешествие по приложениям телефона в поисках программы, которая поможет ему измениться. Неожиданно герои узнают о грозной опасности, нависшей над городом. Смогут ли друзья спасти Текстополис и всех его обитателей?

Качество: HDRip
Формат: AVI
Видео кодек: XviD
Аудио кодек: AC3
Видео: 640x272 (2.35:1), 23.976 fps, XviD build 50 ~1011 kbps avg, 0.24 bit/pixel
Аудио: 48 kHz, MPEG Layer 3, 2 ch, ~128.00 kbps avg
скриншот   скриншот   скриншот   скриншот  

Общее
Полное имя : F:\ФИЛЬМЫ\Эмоджи фильм.2017.D.HDRip.avi
Формат : AVI
Формат/Информация : Audio Video Interleave
Размер файла : 710 Мбайт
Продолжительность : 1 ч. 26 м.
Общий поток : 1149 Кбит/сек
Программа кодирования : VirtualDubMod 1.5.10.3 | www.virtualdub-fr.org || (build 2550/release)
Библиотека кодирования : VirtualDubMod build 2550/release

Видео
Идентификатор : 0
Формат : MPEG-4 Visual
Профиль формата : Advanced Simple@L5
Настройки формата : BVOP1
Параметр BVOP формата : 1
Параметр QPel формата : Нет
Параметр GMC формата : Без точки перехода
Параметр матрицы формата : Default (MPEG)
Идентификатор кодека : XVID
Идентификатор кодека/Подсказка : XviD
Продолжительность : 1 ч. 26 м.
Битрейт : 1012 Кбит/сек
Ширина : 640 пикселей
Высота : 272 пикселя
Соотношение сторон : 2,35:1
Частота кадров : 23,976 (24000/1001) кадра/сек
Цветовое пространство : YUV
Субдискретизация насыщенности : 4:2:0
Битовая глубина : 8 бит
Тип развёртки : Прогрессивная
Метод сжатия : С потерями
Бит/(Пиксели*Кадры) : 0.242
Размер потока : 625 Мбайт (88%)
Библиотека кодирования : XviD 1.2.1 (UTC 2008-12-04)

Аудио
Идентификатор : 1
Формат : MPEG Audio
Версия формата : Version 1
Профиль формата : Layer 3
Настройки формата : Joint stereo
Идентификатор кодека : 55
Идентификатор кодека/Подсказка : MP3
Продолжительность : 1 ч. 26 м.
Вид битрейта : Постоянный
Битрейт : 128 Кбит/сек
Каналы : 2 канала
Частота : 48,0 КГц
Частота кадров : 41,667 кадра/сек (1152 SPF)
Метод сжатия : С потерями
Размер потока : 79,1 Мбайт (11%)
Выравнивание : Соединение по промежуткам
Продолжительность промежутка : 42 мс. (1,00 видеокадр)
Время предзагрузки промежутка : 504 мс.
Библиотека кодирования : LAME3.99r
Настройки программы : -m j -V 4 -q 2 -lowpass 17 -b 128

pb.wtf



Скачать Эмоджи фильм через торрент http://pic1.kartinco.top/images/11/c55qa.jpg Скачать фильм Эмоджи фильм через торрент бесплантно в хорошем качестве Описание: Знаете ли вы, что внутри каждого смартфона есть красочный городок Текстополис, в котором живут эмоджи? И что они ужасно радуются, ... 7.8 10 8
Торрент: Зарегистрирован [2017-11-10 18:32] · скачан: 235 раз
Статус: √ проверено
Размер: 710 MB
Как cкачать? Как скачать Эмоджи фильм через торрент | qTorrent

% Раздел Тема Автор DL S | L
Зарубежные Мультфильмы (BDRip 1080p, 720p, Blu-ray, BD-Remux) [ 16.95 GB ] Эмоджи фильм / The Emoji Movie [2017 Мультфильм BD Remux 1080p] DUB [] bober100 Скачать
1 | 0
Иностранные мультфильмы [ 746 MB ] Эмоджи фильм / The Emoji Movie [2017 мультфильм BDRip-AVC] sokol_ok Скачать
2 | 0
Иностранные мультфильмы [ 2.11 GB ] Эмоджи фильм / The Emoji Movie [2017 мультфильм BDRip-AVC] sokol_ok Скачать
2 | 0
Иностранные мультфильмы [ 1.36 GB ] Эмоджи фильм / The Emoji Movie [2017 мультфильм BDRip-AVC] sokol_ok Скачать
3 | 0
Иностранные мультфильмы [ 1.46 GB ] Эмоджи фильм / The Emoji Movie [2017 мультфильм BDRip] - [] Twi7ter Скачать
1 | 0
Зарубежные Мультфильмы (BDRip 1080p, 720p, Blu-ray, BD-Remux) [ 7.98 GB ] Эмоджи фильм / The Emoji Movie [2017 Мультфильм BDRip 1080p] bober100 Скачать
1 | 0
Иностранные мультфильмы [ 1.74 GB ] Эмоджи фильм / The Emoji Movie [2017 Мультфильм BDRip-AVC] bober100 Скачать
2 | 0

28-11-2019 20:33  

Отключить всю рекламу на сайте

21-11-2017 23:44 Эмоджи фильм Скачать торрент  

Прикольный мульт, спасибо! pb.wtf



    Дорогой пользователь! Огромная просьба, поблагодарите релизера, оцените раздачу и оставьте свои комментарий, если Вы скачали Эмоджи фильм через торрент бесплатно! Внесите свою лепту в развитие PiratBit!
    Комментировать посты могут только пользователи прошедшие не сложную регистрацию
    Показать сообщения:    

    Эмоджи фильм через торрент
    Скачать бесплатно Эмоджи фильм
    Эмоджи фильм скачать торрент
    Эмоджи фильм смотреть онлайн
    Cкачать фильм Эмоджи фильм бесплатно
    Эмоджи фильм скачать торрент в хорошем качестве
    Эмоджи фильм смотреть онлайн бесплатно в хорошем качестве


    Вы не можете начинать темы
    Вы не можете отвечать на сообщения
    Вы не можете редактировать свои сообщения
    Вы не можете удалять свои сообщения
    Вы не можете голосовать в опросах
    Вы не можете прикреплять файлы к сообщениям
    Вы можете скачивать файлы