Ссылка на приватное зеркало нашего сайта всего за 1$. Внимание количество ограничено!!!

2 сезон

iTunes

1 сезон

1

iTunes

iTunes

iTunes

1 сезон

RePack

30

ИГРА 18+

pack

ВАЖНО

!!Акция!!

Alien_RageХит недели

RePack

MK11
pack

Забери бонус

RePack

jed

!!Акция!!

Alien_Rage

RePack

fifa19

RePack

Assassins Creed: Odyssey

RePack

NEED FOR SPEED™ PAYBACK

4 сезон

9 сезон

Бесстыжие 9 сезон

Все сериалы

все сериалы на PB.wtf

RePack

FAR CRY 5
  

Телохранитель киллера / The Hitman's Bodyguard (Патрик Хьюз) [2017, боевик, комедия, BDRip 720p от ExKinoRay] [iTunes] pb.wtf

Телохранитель киллера через торрент pb.wtf

Размер: 6.12 GB | Добавлен: 2 года 11 мес. назад | Торрент скачан:1890 раз
Скачать  

10-11-2017 20:52 Телохранитель киллера Скачать торрент  

Информация о фильме

Название: Телохранитель киллера

Оригинальное название: The Hitman's Bodyguard

Год выхода: 2017

Жанр: Боевик, комедия

Страна: США, Китай, Болгария, Нидерланды

Студия: Campbell Grobman Films, Cristal Pictures, East Light Media, Millennium Films

Продолжительность: 01:58:17

Перевод(ы):

#1: Дублированный | iTunes

#2: Авторский | Михаил Чадов

Режиссер: Патрик Хьюз

В ролях: Райан Рейнольдс, Сэмюэл Л. Джексон, Элоди Юнг, Сальма Хайек, Гэри Олдман, Жоаки де Алмейда, Юрий Колокольников, Тине Жустра, Сэм Хэзелдайн, Ричард Э. Грант, Род Халлетт, Нуртье Херлар, Михаил Горевой, Кирсти Митчелл, Крис Брейзиер, Алан МакКенна, Жозефин де ла Буме, Ори Феффер, Александр Меркюри, Майкл Джинкс, Джастин Пирсон, Оуэн Дэвис

О фильме:

Он — телохранитель мирового уровня. Его новая работа — охранять киллера, которого все мечтают убить. Он и сам с удовольствием прикончил бы этого гада. Но работа есть работа: смертельные враги в прошлом, они вынуждены объединиться в настоящем, чтобы выжить. Однако их методы настолько различны, а принципы противоположны, что вопрос выживания — под большим вопросом.

rating

Файл

Качество: BDRip 720p

Видео: MPEG-4 AVC, 1280x536, 6000 Кbit/s, 23.976 fps

Звук:

Аудио #01: 48 kHz, AC3, 5.1, 384 Kbps | Дублированный | RUS |

Аудио #02: 48 kHz, AC3, 5.1, 384 Kbps | Авторский | RUS |

Аудио #03: 48 kHz, AC3, 5.1, 640 Kbps | Оригинал | ENG |

Субтитры: Английские

General

Unique ID : 173286483640204643963745700135480672028 (0x825DC3458D38AFB38AFEF9B269553F1C)

Complete name : G:VideoSSDThe.Hitmans.BodyGuard.2017.BDRip.720p.ExKinoRay.mkv

Format : Matroska

Format version : Version 4 / Version 2

File size : 6.12 GiB

Duration : 1 h 58 min

Overall bit rate : 7 402 kb/s

Movie name : Release by ExKinoRay

Encoded date : UTC 2017-11-10 19:20:01

Writing application : mkvmerge v17.0.0 ('Be Ur Friend') 64-bit

Writing library : libebml v1.3.5 + libmatroska v1.4.8

Video

ID : 1

Format : AVC

Format/Info : Advanced Video Codec

Format profile : High@L4.1

Format settings : CABAC / 12 Ref Frames

Format settings, CABAC : Yes

Format settings, RefFrames : 12 frames

Codec ID : V_MPEG4/ISO/AVC

Duration : 1 h 58 min

Bit rate : 6 000 kb/s

Width : 1 280 pixels

Height : 536 pixels

Display aspect ratio : 2.40:1

Frame rate mode : Constant

Frame rate : 23.976 (24000/1001) FPS

Color space : YUV

Chroma subsampling : 4:2:0

Bit depth : 8 bits

Scan type : Progressive

Bits/(Pixel*Frame) : 0.365

Stream size : 4.95 GiB (81%)

Title : Medusa @ HDChina

Writing library : x264 core 148 r2665kMod a01e339

Encoding settings : cabac=1 / ref=12 / deblock=1:-3:-3 / analyse=0x3:0x133 / me=umh / subme=11 / psy=1 / fade_compensate=0.00 / psy_rd=1.05:0.00 / mixed_ref=1 / me_range=32 / chroma_me=1 / trellis=2 / 8x8dct=1 / cqm=0 / deadzone=21,11 / fast_pskip=0 / chroma_qp_offset=-2 / threads=17 / lookahead_threads=2 / sliced_threads=0 / nr=0 / decimate=0 / interlaced=0 / bluray_compat=0 / constrained_intra=0 / fgo=0 / bframes=8 / b_pyramid=2 / b_adapt=2 / b_bias=0 / direct=3 / weightb=1 / open_gop=0 / weightp=2 / keyint=240 / keyint_min=24 / scenecut=40 / intra_refresh=0 / rc=2pass / mbtree=0 / bitrate=6000 / ratetol=1.0 / qcomp=0.70 / qpmin=0 / qpmax=69 / qpstep=4 / cplxblur=20.0 / qblur=0.5 / ip_ratio=1.20 / pb_ratio=1.20 / aq=3:0.85

Language : English

Default : Yes

Forced : No

Audio #1

ID : 2

Format : AC-3

Format/Info : Audio Coding 3

Format settings, Endianness : Big

Codec ID : A_AC3

Duration : 1 h 58 min

Bit rate mode : Constant

Bit rate : 384 kb/s

Channel(s) : 6 channels

Channel positions : Front: L C R, Side: L R, LFE

Sampling rate : 48.0 kHz

Frame rate : 31.250 FPS (1536 SPF)

Bit depth : 16 bits

Compression mode : Lossy

Stream size : 325 MiB (5%)

Title : iTunes

Language : Russian

Service kind : Complete Main

Default : Yes

Forced : No

Audio #2

ID : 3

Format : AC-3

Format/Info : Audio Coding 3

Format settings, Endianness : Big

Codec ID : A_AC3

Duration : 1 h 58 min

Bit rate mode : Constant

Bit rate : 384 kb/s

Channel(s) : 6 channels

Channel positions : Front: L C R, Side: L R, LFE

Sampling rate : 48.0 kHz

Frame rate : 31.250 FPS (1536 SPF)

Bit depth : 16 bits

Compression mode : Lossy

Stream size : 325 MiB (5%)

Title : AVO

Language : Russian

Service kind : Complete Main

Default : No

Forced : No

Audio #3

ID : 4

Format : AC-3

Format/Info : Audio Coding 3

Format settings, Endianness : Big

Codec ID : A_AC3

Duration : 1 h 58 min

Bit rate mode : Constant

Bit rate : 640 kb/s

Channel(s) : 6 channels

Channel positions : Front: L C R, Side: L R, LFE

Sampling rate : 48.0 kHz

Frame rate : 31.250 FPS (1536 SPF)

Bit depth : 16 bits

Compression mode : Lossy

Stream size : 541 MiB (9%)

Title : Original

Language : English

Service kind : Complete Main

Default : No

Forced : No

Text

ID : 5

Format : UTF-8

Codec ID : S_TEXT/UTF8

Codec ID/Info : UTF-8 Plain Text

Duration : 1 h 56 min

Bit rate : 59 b/s

Count of elements : 1486

Stream size : 51.0 KiB (0%)

Title : Full

Language : English

Default : No

Forced : No

Menu

00:00:00.000 : en:00:00:00.000

00:07:22.942 : en:00:07:22.942

00:13:53.875 : en:00:13:53.875

00:20:23.305 : en:00:20:23.305

00:27:20.138 : en:00:27:20.138

00:32:53.513 : en:00:32:53.513

00:38:25.428 : en:00:38:25.428

00:46:52.977 : en:00:46:52.977

00:56:39.354 : en:00:56:39.354

01:00:23.370 : en:01:00:23.370

01:09:11.397 : en:01:09:11.397

01:16:34.381 : en:01:16:34.381

01:21:11.241 : en:01:21:11.241

01:27:45.093 : en:01:27:45.093

01:35:06.743 : en:01:35:06.743

01:40:37.740 : en:01:40:37.740
В авторской озвучке присутствует ненормативная лексика. Будьте предельно осторожны!
Релиз от: Автор релиза: pb.wtf



Скачать Телохранитель киллера через торрент http://s014.radikal.ru/i326/1711/b0/7166939538a4.jpg Скачать фильм Телохранитель киллера через торрент бесплантно в хорошем качестве О фильме:Он — телохранитель мирового уровня. Его новая работа — охранять киллера, которого все мечтают убить. Он и сам с удовольствием ... 9.9 10 34
Info! Золотая раздача, скачанное не засчитывается.
Торрент: Зарегистрирован [2017-11-10 20:52] · скачан: 1 890 раз
Статус: √ проверено
Размер: 6.12 GB
Как cкачать? Как скачать Телохранитель киллера через торрент | qTorrent

28-11-2019 20:33  

Отключить всю рекламу на сайте

10-11-2017 20:58 Телохранитель киллера Скачать торрент  

Ожидал большего....pb.wtf



11-11-2017 02:56 Телохранитель киллера Скачать торрент  

Топик был перенесен из форума Фильмы 2017 [DVDrip, WEB-DLRip, HDrip] (DUB, MVO) в форум Фильмы [HD 720p, 1080p] (Хороший звук DUB, MVO)


Enigma2010pb.wtf



11-11-2017 22:15 Телохранитель киллера Скачать торрент  

Ballah писал(а):

Ожидал большего....

Да ладно, позитивное кино, мне понравилось..!pb.wtf



26-11-2017 18:02 Телохранитель киллера Скачать торрент  

Да ничего, норм кино на разочек. Да и ребята все старались. Тока непонятно с переводом Белорусии в СССР как Боснии и .. в Югославии. И здесь политика что ли, может из-за того, что артиста под Батьку нигде не найти. :)pb.wtf



21-12-2017 12:59 Телохранитель киллера Скачать торрент  

нормальный фильмpb.wtf



    Дорогой пользователь! Огромная просьба, поблагодарите релизера, оцените раздачу и оставьте свои комментарий, если Вы скачали Телохранитель киллера через торрент бесплатно! Внесите свою лепту в развитие PiratBit!
    Комментировать посты могут только пользователи прошедшие не сложную регистрацию
    Показать сообщения:    

    Телохранитель киллера через торрент
    Скачать бесплатно Телохранитель киллера
    Телохранитель киллера скачать торрент
    Телохранитель киллера смотреть онлайн
    Cкачать фильм Телохранитель киллера бесплатно
    Телохранитель киллера скачать торрент в хорошем качестве
    Телохранитель киллера смотреть онлайн бесплатно в хорошем качестве


    Вы не можете начинать темы
    Вы не можете отвечать на сообщения
    Вы не можете редактировать свои сообщения
    Вы не можете удалять свои сообщения
    Вы не можете голосовать в опросах
    Вы не можете прикреплять файлы к сообщениям
    Вы можете скачивать файлы