Ссылка на приватное зеркало нашего сайта всего за 1$. Внимание количество ограничено!!!

2 сезон

iTunes

1 сезон

1

iTunes

iTunes

iTunes

1 сезон

RePack

30

ИГРА 18+

pack

ВАЖНО

!!Акция!!

Alien_RageХит недели

RePack

MK11
pack

Забери бонус

RePack

jed

!!Акция!!

Alien_Rage

RePack

fifa19

RePack

Assassins Creed: Odyssey

RePack

NEED FOR SPEED™ PAYBACK

4 сезон

9 сезон

Бесстыжие 9 сезон

Все сериалы

все сериалы на PB.wtf

RePack

FAR CRY 5
  

Отель Элеон / Сезон: 3 / Серии 1-21 из 21 (Антон Федотов, Антон Маслов, Екатерина Забулонская) [2017, Россия, Украина, комедия, WEB-DL 1080p] pb.wtf

Отель Элеон через торрент pb.wtf

Размер: 24.06 GB | Добавлен: 2 года 10 мес. назад | Торрент скачан:133 раза
Скачать  

11-11-2017 00:27 Отель Элеон Скачать торрент  

Отель Элеон


  • Год выпуска: 2017
  • Страна: Россия, Украина
  • Жанр: комедия
  • Продолжительность: ~ 00:25:00 (Серия)
  • Перевод: Не требуется [Русский]
  • Режиссер: Антон Федотов, Антон Маслов, Екатерина Забулонская
  • В ролях:

    Милош Бикович (Павел), Диана Пожарская (Даша Канаева), Екатерина Вилкова (София Толстая), Елена Ксенофонтова (Элеонора Андреевна), Григорий Сиятвинда (Михаил Джекович), Сергей Лавыгин (Сеня), Ольга Кузьмина (Настя), Виктор Хориняк (Костя), Сергей Ларин (гость, помощник бандитов), Олег Гаас (Юрий, второй бармен), Иван Кравченко (бармен Александр), Анна Чернович (Диана Морозова, горничная)


  • Шеф-повар Виктор Баринов ушел на пенсию, а Элеонора Андреевна встретила мужчину своей мечты — на этом закончился шестой сезон «Кухни». Но жизнь продолжается: Михаил Джекович по-прежнему отвечает за порядок в «Элеоне», шеф-поваром ресторана Victor назначили Сеню, а Настя получает неожиданное повышение, что совсем не радует Костю. Все идет своим чередом, пока отель не возглавляет Павел — непутевый племянник прежней хозяйки. Чтобы выполнить нешуточное условие тети, он переманивает из Брюсселя суперменеджера Софию Толстую. Новая управляющая устанавливает свои правила, и теперь отель ждут серьезные перемены, которые переворачивают с ног на голову не только привычный уклад «Элеона», но и личные планы героев.
  • Рейтинг:



  • Качество: WEB-DL 1080p
  • Формат: :MKV
  • Видео кодек: AVC
  • Аудио кодек: AC3
  • Видео: 6336 Кбит/сек, 1920*1080 (16:9), в 25,000 кадров/сек, AVC
  • Аудио: русский 192 Кбит/сек, 48,0 КГц, 16 бит, 2 канала, AC-3
  • Релиз от: OlLanDGroup

    Внимание! Раздача ведётся путём добавления новых серий; при каждом добавлении создаётся новый торрент. Чтобы начать докачку новой серии, пользователям необходимо сделать следующее:
    (1) остановить скачивание,
    (2) удалить старый торрент у себя из клиента (старые серии удалять не надо),
    (3) скачать новый торрент и запустить его у себя в клиенте вместо старого, при этом указать клиенту путь в старую папку куда и должно происходить скачивание новых серий.
    Ваш клиент при этом должен произвести хеширование (проверку) старой папки (если не производит сам - помогите ему сделать это), и будет докачивать только те серии которых у вас ещё нет. Старые серии при этом не удаляются, а продолжают раздаваться!
    Eсли вы уже удалили старые серии, то предотвратить повторную закачку старых серий можно, отжав галочку в соответствующих местах при запуске нового торрента. По возможности, желательно не удалять старые серии как можно дольше чтобы релизёр не столько продолжал раздавать старые серии, а смог сконцентрироваться на новых.
    Общее
    Уникальный идентификатор : 205571873741394862213574736391595808752 (0x9AA7B3E68598AACE83675C697382D7F0)
    Полное имя : F:\Hotel.Eleon.2017.S03.WEB-DL(1080p).OlLanDGroup\Hotel.Eleon.2017.S03.E01.WEB-DL(1080p).OlLanDGroup.mkv
    Формат : Matroska
    Версия формата : Version 2
    Размер файла : 1,20 Гбайт
    Продолжительность : 25 м. 51 с.
    Общий поток : 6660 Кбит/сек
    Дата кодирования : UTC 2017-11-10 16:05:05
    Программа кодирования : mkvmerge v7.8.0 ('River Man') 32bit built on Apr 3 2015 12:11:22
    Библиотека кодирования : libebml v1.3.1 + libmatroska v1.4.2

    Видео
    Идентификатор : 1
    Формат : AVC
    Формат/Информация : Advanced Video Codec
    Профиль формата : High@L4
    Настройки формата : CABAC / 4 Ref Frames
    Параметр CABAC формата : Да
    Параметр RefFrames формата : 4 кадра
    Идентификатор кодека : V_MPEG4/ISO/AVC
    Продолжительность : 25 м. 51 с.
    Битрейт : 6336 Кбит/сек
    Ширина : 1920 пикселей
    Высота : 1080 пикселей
    Соотношение сторон : 16:9
    Режим частоты кадров : Постоянный
    Частота кадров : 25,000 кадров/сек
    Цветовое пространство : YUV
    Субдискретизация насыщенности : 4:2:0
    Битовая глубина : 8 бит
    Тип развёртки : Прогрессивная
    Бит/(Пиксели*Кадры) : 0.122
    Размер потока : 1,14 Гбайт (95%)
    Default : Да
    Forced : Нет

    Аудио
    Идентификатор : 2
    Формат : AC-3
    Формат/Информация : Audio Coding 3
    Идентификатор кодека : A_AC3
    Продолжительность : 25 м. 51 с.
    Вид битрейта : Постоянный
    Битрейт : 192 Кбит/сек
    Каналы : 2 канала
    Расположение каналов : Front: L R
    Частота : 48,0 КГц
    Частота кадров : 31,250 кадров/сек (1536 SPF)
    Битовая глубина : 16 бит
    Метод сжатия : С потерями
    Задержка видео : 16 мс.
    Размер потока : 35,5 Мбайт (3%)
    ServiceKind/String : Complete Main
    Default : Да
    Forced : Нет



    Скриншоты:
    скриншот   скриншот   скриншот   скриншот   скриншот   скриншот   скриншот  
    скриншот  

    Раздача ведётся путём добавления новых серий. Добавлена 21 серия (18.12.2017).Просьба перекачать торрент файл.

    pb.wtf



  • Скачать Отель Элеон через торрент http://pic1.kartinco.top/images/11/hwyb1.jpg Скачать фильм Отель Элеон через торрент бесплантно в хорошем качестве qw.png Шеф-повар Виктор Баринов ушел на пенсию, а Элеонора Андреевна встретила мужчину своей мечты — на этом закончился шестой сезон ... 9.3 10 23
    Info! Золотая раздача, скачанное не засчитывается.
    Торрент: Зарегистрирован [2017-12-17 22:51] · скачан: 133 раз
    Статус: √ проверено
    Размер: 24.06 GB
    Как cкачать? Как скачать Отель Элеон через торрент | qTorrent

    % Раздел Тема Автор DL S | L
    Наши сериалы [ 11.5 GB ] Отель Элеон / Сезон: 3 / Серии 1-21 из 21 [2017 Россия Украина WEB-DLRip 720p] GEKADOL Скачать
    1 | 0
    Наши сериалы [ 7.03 GB ] Отель Элеон / Сезон: 3 / Серии 1-21 из 21 [2017 Россия Украина WEB-DLRip] GEKADOL Скачать
    1 | 0


    Последний раз редактировалось: GEKADOL (2017-12-17 23:03), всего редактировалось 25 раз(а)

    28-11-2019 20:33  

    Отключить всю рекламу на сайте

    26-11-2017 05:15 Отель Элеон Скачать торрент  

    Описание из прошлого сезона?pb.wtf



    10-12-2017 23:03 Отель Элеон Скачать торрент  

    нет 17 серии в списке скачивания !!!pb.wtf



    10-12-2017 23:05 Отель Элеон Скачать торрент  

    neo-mavr писал(а):

    нет 17 серии в списке скачивания !!!

    Всё на месте перекачайте торрент) pb.wtf



      Дорогой пользователь! Огромная просьба, поблагодарите релизера, оцените раздачу и оставьте свои комментарий, если Вы скачали Отель Элеон через торрент бесплатно! Внесите свою лепту в развитие PiratBit!
      Комментировать посты могут только пользователи прошедшие не сложную регистрацию
      Показать сообщения:    

      Отель Элеон через торрент
      Скачать бесплатно Отель Элеон
      Отель Элеон скачать торрент
      Отель Элеон смотреть онлайн
      Cкачать фильм Отель Элеон бесплатно
      Отель Элеон скачать торрент в хорошем качестве
      Отель Элеон смотреть онлайн бесплатно в хорошем качестве


      Вы не можете начинать темы
      Вы не можете отвечать на сообщения
      Вы не можете редактировать свои сообщения
      Вы не можете удалять свои сообщения
      Вы не можете голосовать в опросах
      Вы не можете прикреплять файлы к сообщениям
      Вы можете скачивать файлы