Всегда рабочее зеркало просто перед .vidak.icu напиши любое слово или цифру, Пример http://pib.vidak.icu

>

7.4

iTunes

7.4

2 сезон

9.4

1 сезон

1

7.4

2 сезон

7.2

iTunes

6.0

MVO

13

6.1

iTunes

8.3

Пиратка

30

ULTIMATE

pack

9.9

Лицензия

ВАЖНО

ИГРА 18+

pack

7.3

RePack

MK11

7.7

RePack

jed

7.8

RePack

fifa19

8.5

RePack

RDR2

RePack

NEED FOR SPEED™ PAYBACK

1 сезон

9 сезон

Бесстыжие 9 сезон

Все сериалы

все сериалы на PB.wtf

RePack

FAR CRY 5

Anonymous, доброй ночи, мы катастрофически не успеваем собрать деньги на оплату серверов, помогите нам пожалуйста 5,10,15р., для нас важна любая помощь . В качестве благодарности мы отключим Вам всю рекламу на сайте (укажите свой ник в строку Ваше имя)!

×
  
Magnet ссылка

Непослушный Бабби / Bad Boy Bubby (Рольф Де Хер) [1993 г., драма, комедия, криминал, BDRip] AVO (Алексеев) pb.wtf

Непослушный Бабби через торрент pb.wtf

Размер: 1.45 GB | Добавлен: 4 года 2 мес. назад | Торрент скачан:5 раз
Смотреть онлайн Непослушный Бабби | Скачать    Ребята, помогите собрать деньги на оплату серверов!!!

11-11-2017 08:24 Непослушный Бабби Скачать торрент  

Непослушный Бабби / Bad Boy Bubby
Год выпуска: 1993
Страна: Австралия, Италия
Жанр: драма, комедия, криминал
Продолжительность: 01:53:58
Перевод: Авторский (Алексеев)

Режиссер: Рольф Де Хер

rating

В ролях: Николас Хоуп, Кармел Джонсон, Ралф Коттерилл, Клэр Бенито, Никки Прайс, Улли Бирве, Один Лит, Натали Карр, Сид Брисбэйн, Лусиа Мастрантоне

Описание: Бабби — это не мальчик, а мужчина лет тридцати пяти, но с умственным развитием ребенка. Всю свою жизнь просидел он под замком в доме у своей безумной мамаши регулярно использовавшей сынка для секса. На улицу она выходила только в противогазе, утверждая, что там нечем дышать и Бабби обязательно задохнется. Он сидел смирно на стуле весь день, пока мама была на работе. Бедняга мочился прямо в штаны. Тогда его называли плохим мальчиком, но Бабби не обижался на маму, принимая от нее все. Жили они тихо и мирно, пока не заявился долгие годы отсутствовавший алкаш-отец и не занял место Бабби и в постели, и за столом. Вновь соединившиеся супруги предавались пьянству, мама забыла о Бабби, а «мальчик» обнаружил склонность к насилию. Он обматывает пьяным родителям головы целлофаном и душит их. После того как кончается еда, он выходит на улицу…

Качество: BDRip (BAD_BOY_BUBBY_1993_BD-REMUX)
Формат: AVI
Видео: XviD, 1620 Кбит/с, 720x304, 23.976 кадр/с
Аудио: AC3, 2 ch, 192 Кбит/с
Релиз от: Koenig
скриншот   скриншот   скриншот   скриншот   скриншот  
скриншот  

Общее
Полное имя : Bad.Boy.Bubby.1993.BDRip.avi
Формат : AVI
Формат/Информация : Audio Video Interleave
Размер файла : 1,45 Гбайт
Продолжительность : 1 ч. 53 м.
Общий поток : 1821 Кбит/сек
Программа кодирования : VirtualDubMod 1.5.10.2 (build 2540/release)
Библиотека кодирования : VirtualDubMod build 2540/release

Видео
Идентификатор : 0
Формат : MPEG-4 Visual
Профиль формата : Advanced Simple@L5
Параметр BVOP формата : 1
Параметр QPel формата : Нет
Параметр GMC формата : Без точки перехода
Параметр матрицы формата : Выборочная
Идентификатор кодека : XVID
Идентификатор кодека/Подсказка : XviD
Продолжительность : 1 ч. 53 м.
Битрейт : 1620 Кбит/сек
Ширина : 720 пикселей
Высота : 304 пикселя
Соотношение сторон : 2,35:1
Частота кадров : 23,976 (24000/1001) кадра/сек
Цветовое пространство : YUV
Субдискретизация насыщенности : 4:2:0
Битовая глубина : 8 бит
Тип развёртки : Прогрессивная
Метод сжатия : С потерями
Бит/(Пиксели*Кадры) : 0.309
Размер потока : 1,29 Гбайт (89%)
Библиотека кодирования : XviD 65

Аудио
Идентификатор : 1
Формат : AC-3
Формат/Информация : Audio Coding 3
Параметр Endianness формата : Big
Идентификатор кодека : 2000
Продолжительность : 1 ч. 53 м.
Вид битрейта : Постоянный
Битрейт : 192 Кбит/сек
Каналы : 2 канала
Расположение каналов : Front: L R
Частота : 48,0 КГц
Частота кадров : 31,250 кадров/сек (1536 spf)
Битовая глубина : 16 бит
Метод сжатия : С потерями
Размер потока : 157 Мбайт (11%)
Выравнивание : Разделение по промежуткам
Продолжительность промежутка : 42 мс. (1,00 видеокадр)
Время предзагрузки промежутка : 500 мс.
ServiceKind/String : Complete Main

pb.wtf



Скачать Непослушный Бабби через торрент https://pic1.kartinco.top/images/11/mjh3a.jpg Скачать, смотреть онлайн Непослушный Бабби бесплантно в хорошем качестве Описание: Бабби — это не мальчик, а мужчина лет тридцати пяти, но с умственным развитием ребенка. Всю свою жизнь просидел он под замком в ... 5 10 1
Торрент: Зарегистрирован [2017-11-11 08:24] · скачан: 5 раз
Статус: √ проверено
Размер: 1.45 GB
Как cкачать? Как скачать Непослушный Бабби через торрент | UTorrent

28-11-2019 20:33  

Отключить всю рекламу на сайте

    Дорогой пользователь! Огромная просьба, поблагодарите релизера, оцените раздачу и оставьте свои комментарий, если Вы скачали Непослушный Бабби через торрент бесплатно!
    Комментировать посты могут только пользователи прошедшие не сложную регистрацию
    Показать сообщения:    

    Непослушный Бабби через торрент
    Скачать бесплатно Непослушный Бабби
    Непослушный Бабби скачать торрент
    Непослушный Бабби смотреть онлайн
    Cкачать фильм Непослушный Бабби бесплатно
    Непослушный Бабби скачать торрент в хорошем качестве
    Непослушный Бабби смотреть онлайн бесплатно в хорошем качестве


    Вы не можете начинать темы
    Вы не можете отвечать на сообщения
    Вы не можете редактировать свои сообщения
    Вы не можете удалять свои сообщения
    Вы не можете голосовать в опросах
    Вы не можете прикреплять файлы к сообщениям
    Вы можете скачивать файлы