Доктор Стрэндж

Лицензия

Добыча

Дубляж

Дом дракона

1 сезон

Тор

Дубляж

В эфире

Дубляж

Там, где раки поют

MVO

Властелин колец

1 сезон

GLOBAL

pack

Рекомендуем

30

Пиратка

ВАЖНО

ВАЖНО

Ghostwire

Пиратка

jed

RePack

nioh2

RePack

RDR2

RePack

NEED FOR SPEED™ PAYBACK

RePack

скачать торрент

Кинопоиск HD

Острые козырьки 6 сезон

6 сезон

FAR CRY 6

RePack

скачать торрент

Лицензия

скачать торрент

MVO

1

1 сезон

скачать торрент

1 сезон

скачать торрент

Лицензия

  

Голос монстра / A Monster Calls (Хуан Антонио Байона) [2016, Фэнтези, драма, BD Remux 1080p] Дубляж [US Transfer] [Лицензия]

Голос монстра через торрент pb.wtf

Размер: 23.03 GB | Добавлен: 5 лет назад | Торрент скачан:56 раз
Смотреть онлайн | Скачать   

12-11-2017 09:16 Голос монстра Скачать торрент  

Голос монстра / A Monster Calls
| US Transfer |
Год выпуска: 2016
Страна: США, Испания
Жанр: Фэнтези, драма
Продолжительность: 01:48:36
Перевод: Дубляж Лицензия
Субтитры: Русские, английские

Режиссер: Хуан Антонио Байона

rating

В ролях:

Льюис МакДугалл, Сигурни Уивер, Фелисити Джонс, Тоби Кеббелл, Бен Моор, Джеймс Мелвилл, Оливер Стир, Доминик Бойл, Дженнифер Лим, Макс Габбей

Описание:

Поражающая воображение история о мальчике Конноре и монстре из его снов. Когда Коннору особенно тяжело, происходит нечто невероятное — старое тисовое дерево за окном оживает и превращается в громадное чудовище. По ночам монстр рассказывает Коннору истории, которые помогут ему понять, что даже когда весь мир рушится, можно найти в себе силы и не отчаиваться.

Качество: BD Remux 1080p
Формат: MKV
Видео кодек: H.264
Аудио кодек: AC3/DTS-HD MA

Видео: MPEG-4 AVC, 1920x1080, 25.8 Мbit/s, 23.976 fps
Аудио#1: 48 kHz, DTS-HD MA, 5.1, 3470 Kbps | Дублированный |RUS |
Аудио#2: 48 kHz, AC3, 5.1, 640 Kbps | Дублированный |RUS |
Аудио#3: 48 kHz, AC3, 5.1, 448 kbps | Оригинал |ENG |
скриншот   скриншот   скриншот   скриншот   скриншот  

General
Unique ID : 251960781169752839196219713185227743912 (0xBD8DE19E9EC783AEAE23C91674E822A8)
Complete name : G:VideoSSDA.Monster.Calls.2016.BDREMUX.1080p.ExKinoRay.mkv
Format : Matroska
Format version : Version 4 / Version 2
File size : 23.0 GiB
Duration : 1 h 48 min
Overall bit rate mode : Variable
Overall bit rate : 30.4 Mb/s
Movie name : Release by ExKinoRay
Encoded date : UTC 2017-11-12 04:12:29
Writing application : mkvmerge v17.0.0 ('Be Ur Friend') 64-bit
Writing library : libebml v1.3.5 + libmatroska v1.4.8

Video
ID : 1
Format : AVC
Format/Info : Advanced Video Codec
Format profile : [email protected]
Format settings : CABAC / 4 Ref Frames
Format settings, CABAC : Yes
Format settings, RefFrames : 4 frames
Format settings, GOP : M=3, N=12
Codec ID : V_MPEG4/ISO/AVC
Duration : 1 h 48 min
Bit rate mode : Variable
Bit rate : 25.8 Mb/s
Maximum bit rate : 33.0 Mb/s
Width : 1 920 pixels
Height : 1 080 pixels
Display aspect ratio : 16:9
Frame rate mode : Constant
Frame rate : 23.976 (24000/1001) FPS
Color space : YUV
Chroma subsampling : 4:2:0
Bit depth : 8 bits
Scan type : Progressive
Bits/(Pixel*Frame) : 0.520
Stream size : 19.6 GiB (85%)
Language : English
Default : Yes
Forced : No

Audio #1
ID : 2
Format : DTS
Format/Info : Digital Theater Systems
Format profile : MA / Core
Mode : 16
Format settings, Endianness : Big
Codec ID : A_DTS
Duration : 1 h 48 min
Bit rate mode : Variable / Constant
Bit rate : 3 470 kb/s / 1 509 kb/s
Channel(s) : 6 channels
Channel positions : Front: L C R, Side: L R, LFE
Sampling rate : 48.0 kHz
Frame rate : 93.750 FPS (512 SPF)
Bit depth : 24 bits
Compression mode : Lossless / Lossy
Stream size : 2.63 GiB (11%)
Title : Дубляж [License]
Language : Russian
Default : Yes
Forced : No

Audio #2
ID : 3
Format : AC-3
Format/Info : Audio Coding 3
Format settings, Endianness : Big
Codec ID : A_AC3
Duration : 1 h 48 min
Bit rate mode : Constant
Bit rate : 640 kb/s
Channel(s) : 6 channels
Channel positions : Front: L C R, Side: L R, LFE
Sampling rate : 48.0 kHz
Frame rate : 31.250 FPS (1536 SPF)
Bit depth : 16 bits
Compression mode : Lossy
Stream size : 496 MiB (2%)
Title : Дубляж [License]
Language : Russian
Service kind : Complete Main
Default : No
Forced : No

Audio #3
ID : 4
Format : AC-3
Format/Info : Audio Coding 3
Format settings, Endianness : Big
Codec ID : A_AC3
Duration : 1 h 48 min
Bit rate mode : Constant
Bit rate : 448 kb/s
Channel(s) : 6 channels
Channel positions : Front: L C R, Side: L R, LFE
Sampling rate : 48.0 kHz
Frame rate : 31.250 FPS (1536 SPF)
Bit depth : 16 bits
Compression mode : Lossy
Stream size : 347 MiB (1%)
Title : Original
Language : English
Service kind : Complete Main
Default : No
Forced : No

Text #1
ID : 5
Format : UTF-8
Codec ID : S_TEXT/UTF8
Codec ID/Info : UTF-8 Plain Text
Duration : 1 h 35 min
Bit rate : 72 b/s
Count of elements : 878
Stream size : 51.0 KiB (0%)
Title : Full [iTunes]
Language : Russian
Default : No
Forced : No

Text #2
ID : 6
Format : UTF-8
Codec ID : S_TEXT/UTF8
Codec ID/Info : UTF-8 Plain Text
Duration : 1 h 35 min
Bit rate : 42 b/s
Count of elements : 939
Stream size : 29.6 KiB (0%)
Title : Full
Language : English
Default : No
Forced : No

Menu
00:00:00.000 : en:00:00:00.000
00:08:12.659 : en:00:08:12.659
00:15:35.601 : en:00:15:35.601
00:24:41.480 : en:00:24:41.480
00:31:50.909 : en:00:31:50.909
00:38:50.703 : en:00:38:50.703
00:50:10.925 : en:00:50:10.925
00:55:48.095 : en:00:55:48.095
01:03:51.661 : en:01:03:51.661
01:13:11.679 : en:01:13:11.679
01:19:19.296 : en:01:19:19.296
01:28:52.494 : en:01:28:52.494
01:40:36.030 : en:01:40:36.030




Скачать Голос монстра через торрент http://s008.radikal.ru/i305/1702/04/40640b7bf52d.jpg Скачать, смотреть онлайн Голос монстра бесплантно в хорошем качестве Описание: Поражающая воображение история о мальчике Конноре и монстре из его снов. Когда Коннору особенно тяжело, происходит нечто ... 10 10 5
Торрент: Зарегистрирован [2017-11-12 09:16] · скачан: 56 раз
Статус: √ проверено
Размер: 23.03 GB
Как cкачать? Как скачать Голос монстра через торрент | UTorrent

% Раздел Тема Автор DL S | L
Фильмы 2016 [DVDrip, WEB-DLRip, HDrip] (DUB, MVO) [ 1.97 GB ] Голос монстра / A Monster Calls | Лицензия | BDRip-AVC Enigma2010 Скачать
1 | 0
Фильмы [HD 720p, 1080p] (Хороший звук DUB, MVO) [ 4.95 GB ] Голос монстра / A Monster Calls | DUB + AVO + Original + Sub | 720p от _denis_100 | NNNB _denis_100 Скачать
1 | 0
Фильмы [HD 720p, 1080p] (Хороший звук DUB, MVO) [ 9.13 GB ] Голос монстра / A Monster Calls | Лицензия | 1080p bober100 Скачать
2 | 0
R.G. Resident & PiratVoice - Фильмы, Видео [ 3.3 GB ] Голос монстра / A Monster Calls | Лицензия | 720p от R.G.Resident Хорват Скачать
1 | 0
R.G. Resident & PiratVoice - Фильмы, Видео [ 2.01 GB ] Голос монстра / A Monster Calls | Лицензия | BDRip-AVC от R.G.Resident Хорват Скачать
1 | 0
Фильмы 2016 [DVDrip, WEB-DLRip, HDrip] (DUB, MVO) [ 1.46 GB ] Голос монстра / A Monster Calls | Лицензия | BDRip Twi7ter Скачать
1 | 0
Фильмы без перевода [ 19.95 GB ] Голос монстра / A Monster Calls | | BD Remux smaster Скачать
1 | 0

28-11-2019 20:33  


Отключить вcю реклaмy на сайте, в т.ч. и в плеере онлайн просмотра!

    Дорогой пользователь! Огромная просьба, поблагодарите релизера, оцените раздачу и оставьте свои комментарий, если Вы скачали Голос монстра через торрент бесплатно!!
    Комментировать посты могут только пользователи прошедшие не сложную регистрацию
    Показать сообщения:    


    Голос монстра через торрент
    Скачать бесплатно Голос монстра
    Голос монстра скачать торрент
    Голос монстра смотреть онлайн
    Cкачать фильм Голос монстра бесплатно
    Голос монстра скачать торрент в хорошем качестве
    Голос монстра смотреть онлайн бесплатно в хорошем качестве
    Вы не можете начинать темы
    Вы не можете отвечать на сообщения
    Вы не можете редактировать свои сообщения
    Вы не можете удалять свои сообщения
    Вы не можете голосовать в опросах
    Вы не можете прикреплять файлы к сообщениям
    Вы можете скачивать файлы
    Голос монстра / A Monster Calls [2016, Фэнтези, драма, BD Remux 1080p] Дубляж [US Transfer] [Лицензия] смотреть онлайн, скачать торрент picoco.icu