Ссылка на приватное зеркало нашего сайта всего за 1$. Внимание количество ограничено!!!

2 сезон

iTunes

1 сезон

1

2 сезон

2 сезон

iTunes

1 сезон

RePack

30

Новинка

ВАЖНО

ИГРА 18+

pack

RePack

MK11
pack

Забери бонус

RePack

jed

!!Акция!!

Alien_Rage

RePack

fifa19

RePack

Assassins Creed: Odyssey

RePack

NEED FOR SPEED™ PAYBACK

4 сезон

9 сезон

Бесстыжие 9 сезон

Все сериалы

все сериалы на PB.wtf

RePack

FAR CRY 5
  

Синяя бездна / Страх глубины / 47 Meters Down (Йоханнес Робертс) [2017, Драма, триллер, ужасы, BD Remux 1080p] DUB [US Transfer] [Лицензия] pb.wtf

Синяя бездна через торрент pb.wtf

Размер: 21.08 GB | Добавлен: 3 года назад | Торрент скачан:47 раз
Скачать  

12-11-2017 10:26 Синяя бездна Скачать торрент  

Синяя бездна / Страх глубины / 47 Meters Down
| US Transfer |
«В 47 метрах от спасения. Всего час кислорода. Среди хищников»Год выпуска: 2017
Страна: Великобритания, США, Доминикана
Жанр: Драма, триллер, ужасы
Продолжительность: 01:25:32
Перевод: Дублированный | Лицензия
Субтитры: Русские, английские

Режиссер: Йоханнес Робертс

rating

В ролях:

Мэнди Мур, Клер Холт, Крис Дж. Джонсон, Яни Гельман, Сантьяго Сегура, Мэттью Модайн, Майра Хуарес

Описание:

Отдыхая на солнечных пляжах Мексики, Лиза и ее сестра Кейт решаются на погружение в клетке к большим белым акулам. Но зрелищный аттракцион оборачивается кошмаром, когда клетка с двумя девушками срывается на океанское дно. Помощи ждать неоткуда, а кислорода остается лишь на час. Единственный выход из смертельной ловушки — плыть вверх через толщу воды, которая кишит самыми свирепыми хищниками океана.


Качество: BD Remux 1080p
Формат: MKV
Видео кодек: H.264
Аудио кодек: AC3/DTS-HD MA

Видео: MPEG-4 AVC, 1920x1080, 26.0 Mbit/s, 23.976 fps
Аудио#1: 48 kHz, DTS-HD MA, 5.1, 3514 Kbps | Дублированный | RUS |
Аудио#2: 48 kHz, AC3, 5.1, 640 Kbps | Дублированный | RUS |
Аудио#3: 48 kHz, DTS-HD MA, 5.1, 3686 Kbps | Оригинал | ENG |

Релиз от:
скриншот   скриншот   скриншот   скриншот   скриншот  

General
Unique ID : 219815671193734152750299904163520805571 (0xA55EF555C123EFC3911DA8D249497AC3)
Complete name : G:VideoSSD47.Meters.Down.2017.Lic.BDREMUX.1080p.ExKinoRay.mkv
Format : Matroska
Format version : Version 4 / Version 2
File size : 21.1 GiB
Duration : 1 h 29 min
Overall bit rate mode : Variable
Overall bit rate : 33.8 Mb/s
Movie name : Release by ExKinoRay
Encoded date : UTC 2017-11-12 08:54:08
Writing application : mkvmerge v17.0.0 ('Be Ur Friend') 64-bit
Writing library : libebml v1.3.5 + libmatroska v1.4.8

Video
ID : 1
Format : AVC
Format/Info : Advanced Video Codec
Format profile : High@L4.1
Format settings : CABAC / 4 Ref Frames
Format settings, CABAC : Yes
Format settings, RefFrames : 4 frames
Codec ID : V_MPEG4/ISO/AVC
Duration : 1 h 29 min
Bit rate mode : Variable
Bit rate : 26.0 Mb/s
Maximum bit rate : 37.0 Mb/s
Width : 1 920 pixels
Height : 1 080 pixels
Display aspect ratio : 16:9
Frame rate mode : Constant
Frame rate : 23.976 (24000/1001) FPS
Color space : YUV
Chroma subsampling : 4:2:0
Bit depth : 8 bits
Scan type : Progressive
Bits/(Pixel*Frame) : 0.522
Stream size : 16.2 GiB (77%)
Language : English
Default : Yes
Forced : No

Audio #1
ID : 2
Format : DTS
Format/Info : Digital Theater Systems
Format profile : MA / Core
Mode : 16
Format settings, Endianness : Big
Codec ID : A_DTS
Duration : 1 h 29 min
Bit rate mode : Variable / Constant
Bit rate : 3 514 kb/s / 1 509 kb/s
Channel(s) : 6 channels
Channel positions : Front: L C R, Side: L R, LFE
Sampling rate : 48.0 kHz
Frame rate : 93.750 FPS (512 SPF)
Bit depth : 24 bits
Compression mode : Lossless / Lossy
Stream size : 2.19 GiB (10%)
Title : Dub [License]
Language : Russian
Default : Yes
Forced : No

Audio #2
ID : 3
Format : AC-3
Format/Info : Audio Coding 3
Format settings, Endianness : Big
Codec ID : A_AC3
Duration : 1 h 29 min
Bit rate mode : Constant
Bit rate : 640 kb/s
Channel(s) : 6 channels
Channel positions : Front: L C R, Side: L R, LFE
Sampling rate : 48.0 kHz
Frame rate : 31.250 FPS (1536 SPF)
Bit depth : 16 bits
Compression mode : Lossy
Stream size : 409 MiB (2%)
Title : Dub [License]
Language : Russian
Service kind : Complete Main
Default : No
Forced : No

Audio #3
ID : 4
Format : DTS
Format/Info : Digital Theater Systems
Format profile : MA / Core
Mode : 16
Format settings, Endianness : Big
Codec ID : A_DTS
Duration : 1 h 29 min
Bit rate mode : Variable / Constant
Bit rate : 3 686 kb/s / 1 509 kb/s
Channel(s) : 6 channels
Channel positions : Front: L C R, Side: L R, LFE
Sampling rate : 48.0 kHz
Frame rate : 93.750 FPS (512 SPF)
Bit depth : 24 bits
Compression mode : Lossless / Lossy
Stream size : 2.30 GiB (11%)
Title : Original
Language : English
Default : No
Forced : No

Text #1
ID : 5
Format : UTF-8
Codec ID : S_TEXT/UTF8
Codec ID/Info : UTF-8 Plain Text
Duration : 1 h 21 min
Bit rate : 68 b/s
Count of elements : 1002
Stream size : 40.6 KiB (0%)
Title : Full
Language : Russian
Default : No
Forced : No

Text #2
ID : 6
Format : UTF-8
Codec ID : S_TEXT/UTF8
Codec ID/Info : UTF-8 Plain Text
Duration : 1 h 21 min
Bit rate : 56 b/s
Count of elements : 1021
Stream size : 33.6 KiB (0%)
Title : SDH
Language : English
Default : No
Forced : No

Menu
00:00:00.000 : en:00:00:00.000
00:06:36.229 : en:00:06:36.229
00:10:12.946 : en:00:10:12.946
00:16:08.467 : en:00:16:08.467
00:20:51.333 : en:00:20:51.333
00:27:36.530 : en:00:27:36.530
00:31:37.771 : en:00:31:37.771
00:36:18.968 : en:00:36:18.968
00:42:00.685 : en:00:42:00.685
00:46:39.005 : en:00:46:39.005
00:52:06.415 : en:00:52:06.415
00:57:23.940 : en:00:57:23.940
01:02:45.553 : en:01:02:45.553
01:07:36.719 : en:01:07:36.719
01:13:12.847 : en:01:13:12.847
01:18:09.935 : en:01:18:09.935

pb.wtf



Скачать Синяя бездна через торрент http://s16.radikal.ru/i191/1709/ee/f60656169da3.jpg Скачать фильм Синяя бездна через торрент бесплантно в хорошем качестве Описание: Отдыхая на солнечных пляжах Мексики, Лиза и ее сестра Кейт решаются на погружение в клетке к большим белым акулам. Но зрелищный ... 10 10 3
Торрент: Зарегистрирован [2017-11-12 10:26] · скачан: 47 раз
Статус: √ проверено
Размер: 21.08 GB
Как cкачать? Как скачать Синяя бездна через торрент | qTorrent

% Раздел Тема Автор DL S | L
Фильмы 2017 [DVDrip, WEB-DLRip, HDrip] (DUB, MVO) [ 780 MB ] Синяя бездна / Страх глубины / 47 Meters Down [2017 BDRip-AVC] [Open Matte] sokol_ok Скачать
2 | 0
Фильмы (Blu-ray, BD-Remux, HDDVD) [ 16.54 GB ] Синяя бездна / Страх глубины / 47 Meters Down [2017 Blu-ray 1080p] DUB [] bober100 Скачать
1 | 0
Фильмы 2017 [DVDrip, WEB-DLRip, HDrip] (DUB, MVO) [ 2.94 GB ] Синяя бездна / Страх глубины / 47 Meters Down [2017 BDRip-AVC] [Open Matte] sokol_ok Скачать
3 | 0
Фильмы 2017 [DVDrip, WEB-DLRip, HDrip] (DUB, MVO) [ 2.17 GB ] Синяя бездна / Страх глубины / 47 Meters Down [2017 BDRip-AVC] [Open Matte] sokol_ok Скачать
2 | 0
Фильмы 2017 [DVDrip, WEB-DLRip, HDrip] (DUB, MVO) [ 1.47 GB ] Синяя бездна / Страх глубины / 47 Meters Down [2017 BDRip-AVC] [Open Matte] sokol_ok Скачать
2 | 0
Фильмы 2017 [DVDrip, WEB-DLRip, HDrip] (DUB, MVO) [ 745 MB ] Синяя бездна / Страх глубины / 47 Meters Down [2017 Доминикана BDRip-AVC] sokol_ok Скачать
2 | 0
Фильмы 2017 [DVDrip, WEB-DLRip, HDrip] (DUB, MVO) [ 2.18 GB ] Синяя бездна / Страх глубины / 47 Meters Down [2017 Доминикана BDRip-AVC] sokol_ok Скачать
2 | 0

28-11-2019 20:33  

Отключить всю рекламу на сайте

01-12-2017 00:27 Синяя бездна Скачать торрент  

Крутое кино, говоря простым языком.
кстати релиз создан качественно-на телике всё выбирается и идёт гладко!

для меня как опытного дайвера и побывавшего и в такой клетке, и в мексике, и в ситуации мало воздуха было одним удовольствием смотреть.
почти нет ляпов\ошибок.

а главное нет мути в начале, нет heroйства в концеpb.wtf



    Дорогой пользователь! Огромная просьба, поблагодарите релизера, оцените раздачу и оставьте свои комментарий, если Вы скачали Синяя бездна через торрент бесплатно! Внесите свою лепту в развитие PiratBit!
    Комментировать посты могут только пользователи прошедшие не сложную регистрацию
    Показать сообщения:    

    Синяя бездна через торрент
    Скачать бесплатно Синяя бездна
    Синяя бездна скачать торрент
    Синяя бездна смотреть онлайн
    Cкачать фильм Синяя бездна бесплатно
    Синяя бездна скачать торрент в хорошем качестве
    Синяя бездна смотреть онлайн бесплатно в хорошем качестве


    Вы не можете начинать темы
    Вы не можете отвечать на сообщения
    Вы не можете редактировать свои сообщения
    Вы не можете удалять свои сообщения
    Вы не можете голосовать в опросах
    Вы не можете прикреплять файлы к сообщениям
    Вы можете скачивать файлы