2 сезон

iTunes

MVO

1

2 сезон

iTunes

iTunes

1 сезон

RePack

30

Ultimate

ВАЖНО

ИГРА 18+

pack

RePack

MK11
pack

Легкие деньги

RePack

jed

RePack

fifa19

RePack

RDR2

RePack

NEED FOR SPEED™ PAYBACK

4 сезон

9 сезон

Бесстыжие 9 сезон

Все сериалы

все сериалы на PB.wtf

RePack

FAR CRY 5

Anonymous, доброй ночи, мы не успеваем собрать деньги на оплату серверов за декабрь и январь, помогите нам пожалуйста в это трудное время. В качестве благодарности мы отключим Вам всю рекламу на сайте (укажите свой ник в строку Ваше имя)!

×
  
Magnet ссылка

Демон внутри / Вскрытие Джейн Доу / The Autopsy of Jane Doe (Андре Овредал) [2016, Ужасы, BDRip-AVC] 2xMVO [Лицензия + AlexFilm] pb.wtf

Демон внутри через торрент pb.wtf

Размер: 1.65 GB | Добавлен: 3 года 2 мес. назад | Торрент скачан:223 раза
Скачать  

12-11-2017 11:19 Демон внутри Скачать торрент  

Демон внутри / Вскрытие Джейн Доу /
The Autopsy of Jane Doe
Год выпуска: 2016
Страна: Великобритания
Жанр: Ужасы
Продолжительность: 01:26:22
Перевод: Профессиональный многоголосый | Лицензия, AlexFilm
Субтитры: Нет

Режиссер: Андре Овредал

rating

В ролях:

Эмиль Хирш, Брайан Кокс, Офелия Ловибонд, Майкл МакЭлхаттон, Олуэн Катрин Келли, Паркер Сойерс, Джейн Перри, Ив О’Хара

Описание:

Тилдены. Морг и крематорий. Вот уже третье поколение Тилдены исправно выполняют свою работу. "Если взялись за дело, то выполняем его до конца!" Именно так звучит девиз этой небольшой семейной фирмы. Старший Тилден помогает полиции раскрывать преступления, используя свои обширные знания и опыт. Однажды, давний друг Тильманов, инспектор Берг, привозит в морг тело девушки, личность которой невозможно установить. Так же он просит провести вскрытие до утра следующего дня. Отец с сыном принимаются за работу...


Качество: BDRip-AVC
Формат: MKV
Видео кодек: H.264
Аудио кодек: AC3

Видео: 1024x426 (2.40:1), 23.976 fps, x264 ~1463 kbps avg, 0.140 bit/pixel
Аудио#1: 48 kHz, AC3 Dolby Digital, 3/2 (L,C,R,l,r) + LFE ch, ~448.00 kbps avg | RUS | Лицензия
Аудио#2: 48 kHz, AC3 Dolby Digital, 3/2 (L,C,R,l,r) + LFE ch, ~384.00 kbps avg | RUS | AlexFilm
Аудио#3: 48 kHz, AC3 Dolby Digital, 3/2 (L,C,R,l,r) + LFE ch, ~448.00 kbps avg | ENG | Original
скриншот   скриншот   скриншот   скриншот   скриншот   скриншот  

Общее
Уникальный идентификатор : 243161527287084200523274787832896471751 (0xB6EF34E87D64100F9B2846A592B0C2C7)
Полное имя : E:OlLanDGroupThe.Autopsy.of.Jane.Doe.2016.BDRip(AVC).OlLanDGroup.mkv
Формат : Matroska
Версия формата : Version 2
Размер файла : 1,65 Гбайт
Продолжительность : 1 ч. 26 м.
Общий поток : 2742 Кбит/сек
Название фильма : The.Autopsy.of.Jane.Doe.2016 #TorpedoUK#
Дата кодирования : UTC 2017-11-12 09:45:19
Программа кодирования : mkvmerge v7.8.0 ('River Man') 32bit built on Apr 3 2015 12:11:22
Библиотека кодирования : libebml v1.3.1 + libmatroska v1.4.2

Видео
Идентификатор : 1
Формат : AVC
Формат/Информация : Advanced Video Codec
Профиль формата : High@L4.1
Параметр CABAC формата : Да
Параметр ReFrames формата : 10 кадров
Идентификатор кодека : V_MPEG4/ISO/AVC
Продолжительность : 1 ч. 26 м.
Битрейт : 1463 Кбит/сек
Ширина : 1024 пикселя
Высота : 426 пикселей
Соотношение сторон : 2,40:1
Режим частоты кадров : Постоянный
Частота кадров : 23,976 (24000/1001) кадра/сек
Цветовое пространство : YUV
Субдискретизация насыщенности : 4:2:0
Битовая глубина : 8 бит
Тип развёртки : Прогрессивная
Бит/(Пиксели*Кадры) : 0.140
Размер потока : 870 Мбайт (51%)
Библиотека кодирования : x264 core 146 r2538 121396c
Настройки программы : cabac=1 / ref=10 / deblock=1:-3:-3 / analyse=0x3:0x133 / me=umh / subme=11 / psy=1 / psy_rd=0.02:0.10 / mixed_ref=1 / me_range=48 / chroma_me=1 / trellis=2 / 8x8dct=1 / cqm=0 / deadzone=21,11 / fast_pskip=0 / chroma_qp_offset=-2 / threads=12 / lookahead_threads=3 / sliced_threads=0 / nr=0 / decimate=0 / interlaced=0 / bluray_compat=0 / constrained_intra=0 / bframes=10 / b_pyramid=2 / b_adapt=2 / b_bias=0 / direct=3 / weightb=1 / open_gop=0 / weightp=2 / keyint=240 / keyint_min=23 / scenecut=40 / intra_refresh=0 / rc_lookahead=40 / rc=2pass / mbtree=0 / bitrate=1463 / ratetol=1.0 / qcomp=0.60 / qpmin=0 / qpmax=69 / qpstep=4 / cplxblur=20.0 / qblur=0.5 / vbv_maxrate=50000 / vbv_bufsize=62500 / nal_hrd=none / filler=0 / ip_ratio=1.40 / pb_ratio=1.30 / aq=1:1.00
Язык : English
Default : Да
Forced : Нет

Аудио #1
Идентификатор : 2
Формат : AC-3
Формат/Информация : Audio Coding 3
Расширение режима : CM (complete main)
Параметр Endianness формата : Big
Идентификатор кодека : A_AC3
Продолжительность : 1 ч. 26 м.
Вид битрейта : Постоянный
Битрейт : 448 Кбит/сек
Каналы : 6 каналов
Расположение каналов : Front: L C R, Side: L R, LFE
Частота : 48,0 КГц
Частота кадров : 31,250 кадров/сек (1536 spf)
Битовая глубина : 16 бит
Метод сжатия : С потерями
Размер потока : 277 Мбайт (16%)
Заголовок : License
Язык : Russian
Default : Да
Forced : Нет

Аудио #2
Идентификатор : 3
Формат : AC-3
Формат/Информация : Audio Coding 3
Расширение режима : CM (complete main)
Параметр Endianness формата : Big
Идентификатор кодека : A_AC3
Продолжительность : 1 ч. 26 м.
Вид битрейта : Постоянный
Битрейт : 384 Кбит/сек
Каналы : 6 каналов
Расположение каналов : Front: L C R, Side: L R, LFE
Частота : 48,0 КГц
Частота кадров : 31,250 кадров/сек (1536 spf)
Битовая глубина : 16 бит
Метод сжатия : С потерями
Размер потока : 237 Мбайт (14%)
Заголовок : AlexFilm
Язык : Russian
Default : Нет
Forced : Нет

Аудио #3
Идентификатор : 4
Формат : AC-3
Формат/Информация : Audio Coding 3
Расширение режима : CM (complete main)
Параметр Endianness формата : Big
Идентификатор кодека : A_AC3
Продолжительность : 1 ч. 26 м.
Вид битрейта : Постоянный
Битрейт : 448 Кбит/сек
Каналы : 6 каналов
Расположение каналов : Front: L C R, Side: L R, LFE
Частота : 48,0 КГц
Частота кадров : 31,250 кадров/сек (1536 spf)
Битовая глубина : 16 бит
Метод сжатия : С потерями
Размер потока : 277 Мбайт (16%)
Заголовок : Oiiginal
Язык : English
Default : Нет
Forced : Нет

Текст #1
Идентификатор : 5
Формат : UTF-8
Идентификатор кодека : S_TEXT/UTF8
Идентификатор кодека/Информация : UTF-8 Plain Text
Заголовок : Full
Язык : Russian
Default : Нет
Forced : Нет

Текст #2
Идентификатор : 6
Формат : UTF-8
Идентификатор кодека : S_TEXT/UTF8
Идентификатор кодека/Информация : UTF-8 Plain Text
Заголовок : Full
Язык : English
Default : Нет
Forced : Нет

Текст #3
Идентификатор : 7
Формат : UTF-8
Идентификатор кодека : S_TEXT/UTF8
Идентификатор кодека/Информация : UTF-8 Plain Text
Заголовок : SDH
Язык : English
Default : Нет
Forced : Нет

Меню
00:00:00.000 : en:Chapter 1
00:15:18.417 : en:Chapter 2
00:26:51.610 : en:Chapter 3
00:43:47.625 : en:Chapter 4
00:55:10.807 : en:Chapter 5
01:06:08.965 : en:Chapter 6
01:13:33.200 : en:Chapter 7
01:21:44.900 : en:Chapter 8
01:26:26.431 : en:Chapter 9
01:26:26.514 : en:Chapter 10

pb.wtf



Скачать Демон внутри через торрент http://s019.radikal.ru/i617/1711/2a/444d1f3f9bb0.jpg Скачать фильм Демон внутри через торрент бесплантно в хорошем качестве Описание: Тилдены. Морг и крематорий. Вот уже третье поколение Тилдены исправно выполняют свою работу. "Если взялись за дело, то выполняем ... 9.1 10 11
Торрент: Зарегистрирован [2017-11-12 11:19] · скачан: 223 раз
Статус: √ проверено
Размер: 1.65 GB
Как cкачать? Как скачать Демон внутри через торрент | UTorrent

% Раздел Тема Автор DL S | L
Фильмы [HD 720p, 1080p] (Хороший звук DUB, MVO) [ 10.12 GB ] Демон внутри / Вскрытие Джейн Доу / The Autopsy of Jane Doe [2016 BDRip 1080p] MVO [] bober100 Скачать
1 | 0
Фильмы 2016 [DVDrip, WEB-DLRip, HDrip] (DUB, MVO) [ 1.46 GB ] Демон внутри / Вскрытие Джейн Доу / The Autopsy of Jane Doe [2016 BDRip] многоголосый [] Twi7ter Скачать
1 | 0
Фильмы (Blu-ray, BD-Remux, HDDVD) [ 19.65 GB ] Демон внутри / Вскрытие Джейн Доу / The Autopsy of Jane Doe [2016 BD Remux 1080p] MVO [US Transfer] [] bober100 Скачать
1 | 0
Фильмы (WEB-DL 720p, 1080p) [ 3.21 GB ] Демон внутри / Вскрытие Джейн Доу / The Autopsy of Jane Doe [2016 WEB-DL 1080p] многоголосый [AlexFilm] killermax2013 Скачать
1 | 0
Фильмы (HD 720p, 1080p) (48-60 fps) [ 13.06 GB ] Демон внутри / Вскрытие Джейн Доу / The Autopsy of Jane Doe [2016 BDRip 1080p / 60fps] MVO+2xVO sheker187 Скачать
1 | 0
Фильмы 2016 [DVDrip, WEB-DLRip, HDrip] (DUB, MVO) [ 1.42 GB ] Демон внутри / Вскрытие Джейн Доу / The Autopsy of Jane Doe [2016 BDRip] многоголосый [AlexFilm] Twi7ter Скачать
1 | 0
Фильмы [HD 720p, 1080p] (Хороший звук DUB, MVO) [ 4.91 GB ] Демон внутри / Вскрытие Джейн Доу / The Autopsy of Jane Doe [2016 BDRip 720p] MVO sheker187 Скачать
1 | 0

28-11-2019 20:33  

Отключить всю рекламу на сайте

    Дорогой пользователь! Огромная просьба, поблагодарите релизера, оцените раздачу и оставьте свои комментарий, если Вы скачали Демон внутри через торрент бесплатно! Внесите свою лепту в развитие PiratBit!
    Комментировать посты могут только пользователи прошедшие не сложную регистрацию
    Показать сообщения:    

    Демон внутри через торрент
    Скачать бесплатно Демон внутри
    Демон внутри скачать торрент
    Демон внутри смотреть онлайн
    Cкачать фильм Демон внутри бесплатно
    Демон внутри скачать торрент в хорошем качестве
    Демон внутри смотреть онлайн бесплатно в хорошем качестве


    Вы не можете начинать темы
    Вы не можете отвечать на сообщения
    Вы не можете редактировать свои сообщения
    Вы не можете удалять свои сообщения
    Вы не можете голосовать в опросах
    Вы не можете прикреплять файлы к сообщениям
    Вы можете скачивать файлы