новый адрес пиратбит piratbit
Мега распродажа FORZA HORIZON 4 ULTIMATE+ВСЕ DLC+ОНЛАЙН всего за 499р. 349 руб. (супер цена). Внимание количество ограничено!!!

iTunes

1+1

iTunes

мы

iTunes

1

iTunes

Чернобыль

iTunes

Ральф против интернета

Лицензия

ПШазам

Лицензия

Игра престолов

Лицензия

30
pack

ВАЖНО

!!Акция!!

Alien_RageХит недели

RePack

Resident Evil 21

ИГРА 18+

pack

RePack

Metro:Exodus

!!Акция!!

Alien_Rage

RePack

fifa19

RePack

Assassins Creed: Odyssey

RePack

NEED FOR SPEED™ PAYBACK

3 сезон

9 сезон

Бесстыжие 9 сезон

Все сериалы

все сериалы на PB.wtf

RePack

FAR CRY 5
Ребята, катастрофически не хватает 1900р. для оплаты серверов за Октябрь (всвязи с блокировками трафик упал в 3 раза), 1-2р., выручайте.
  

Живет на свете женщина (Давид Карасик) [1959, драма, фильм-спектакль, VHSRip от AVP Studio] pb.wtf

Живет на свете женщина через торрент pb.wtf

Размер: 1.46 GB | Добавлен: 1 год 11 мес. назад | Торрент скачан:18 раз
Скачать  

13-11-2017 05:53 Живет на свете женщина Скачать торрент  

Живет на свете женщина
Страна: СССР
Производство: Ленинградское телевидение

Жанр: драма, фильм-спектакль
Год выпуска: 1959
Продолжительность: 02:10:34

Перевод: Не требуется
Cубтитры: нет
Оригинальная аудиодорожка: русский

Режиссер: Давид Карасик

В ролях:
Ариадна Кузнецова, Ольга Аверичева, Александра Дельвин, Адольф Шестаков, Герман Хованов, Александр Янкевский, Глеб Селянин, Нина Ургант, Галина Дунаева, Е. Клюева, Елена Деливрон...
Об актёрах подробней

Описание:
В прядильном цеху меланжевого комбината произошла авария. Работница Зоя Семенова получила тяжелую травму. В происшедшем некоторые коллеги обвинили начальника цеха - Галину Демидову, началось следствие. Дело поручили следователю Сухобоковой, человеку честному и принципиальному. В ходе следствия Сухобокова встречается с работницами цеха и друзьями Демидовой, которые не верят в вину Галины...

Исходник: VHS
Качество видео: VHSRip
Формат видео: AVI

Видео: 704х528 (4:3), 25 fps, XviD ~ 1463 kbps avg, 0.157 bit/pixel
Аудио: 48 kHz, MP3 2.0, 128 kbps

Раздача от:
Общее
Полное имя : Zhivet.na.svete.zhenwina.1959.VHS_[New-team]_by_AVP_Studio.avi
Формат : AVI
Формат/Информация : Audio Video Interleave
Размер файла : 1,46 Гбайт
Продолжительность : 2 ч. 10 м.
Общий поток : 1600 Кбит/сек
Программа кодирования : VirtualDubMod 1.5.10.3 | www.virtualdub-fr.org || (build 2550/release)
Библиотека кодирования : VirtualDubMod build 2550/release

Видео
Идентификатор : 0
Формат : MPEG-4 Visual
Профиль формата : Advanced Simple@L5
Параметр BVOP формата : 1
Параметр QPel формата : Нет
Параметр GMC формата : Без точки перехода
Параметр матрицы формата : Выборочная
Идентификатор кодека : XVID
Идентификатор кодека/Подсказка : XviD
Продолжительность : 2 ч. 10 м.
Битрейт : 1463 Кбит/сек
Ширина : 704 пикселя
Высота : 528 пикселей
Соотношение сторон : 4:3
Частота кадров : 25,000 кадров/сек
Цветовое пространство : YUV
Субдискретизация насыщенности : 4:2:0
Битовая глубина : 8 бит
Тип развёртки : Прогрессивная
Метод сжатия : С потерями
Бит/(Пиксели*Кадры) : 0.157
Размер потока : 1,33 Гбайт (91%)
Библиотека кодирования : XviD 73

Аудио
Идентификатор : 1
Формат : MPEG Audio
Версия формата : Version 1
Профиль формата : Layer 3
Идентификатор кодека : 55
Идентификатор кодека/Подсказка : MP3
Продолжительность : 2 ч. 10 м.
Вид битрейта : Постоянный
Битрейт : 128 Кбит/сек
Каналы : 2 канала
Частота : 48,0 КГц
Метод сжатия : С потерями
Размер потока : 120 Мбайт (8%)
Выравнивание : Соединение по промежуткам
Продолжительность промежутка : 40 мс. (1,00 видеокадр)
Время предзагрузки промежутка : 504 мс.
Библиотека кодирования : LAME3.99r
Настройки программы : -m s -V 4 -q 2 -lowpass 17 -b 128
pb.wtf



Скачать Живет на свете женщина через торрент http://s014.radikal.ru/i326/1711/66/9857ad23f869.png Скачать фильм Живет на свете женщина через торрент бесплантно в хорошем качестве Описание:В прядильном цеху меланжевого комбината произошла авария. Работница Зоя Семенова получила тяжелую травму. В происшедшем некоторые ... 5 10 1
Info! Золотая раздача, скачанное не засчитывается.
Торрент: Зарегистрирован [2017-11-13 05:53] · скачан: 18 раз
Статус: √ проверено
Размер: 1.46 GB
Как cкачать? Как скачать Живет на свете женщина через торрент | qTorrent

% Раздел Тема Автор DL S | L
Кино СССР [ 1.46 GB ] Живет на свете женщина [1959 фильм-спектакль VHSRip-AVC от AVP Studio] AVP Studio Скачать
1 | 0


>> Регистрируемся здесь <<






Отзывы и комментарии о схеме читаем и пишем здесь: ---> Отзывы и комментарии о схеме

Новые благодарочки в телеграм довольных пользователей:
скриншот   скриншот   скриншот   скриншот   скриншот
    Дорогой пользователь! Огромная просьба, поблагодарите релизера, оцените раздачу и оставьте свои комментарий, если Вы скачали Живет на свете женщина через торрент бесплатно! Внесите свою лепту в развитие PiratBit!
    Комментировать посты могут только пользователи прошедшие не сложную регистрацию
    Показать сообщения:    

    Живет на свете женщина через торрент
    Скачать бесплатно Живет на свете женщина
    Живет на свете женщина скачать торрент
    Живет на свете женщина смотреть онлайн
    Cкачать фильм Живет на свете женщина бесплатно
    Живет на свете женщина скачать торрент в хорошем качестве
    Живет на свете женщина смотреть онлайн бесплатно в хорошем качестве


    Вы не можете начинать темы
    Вы не можете отвечать на сообщения
    Вы не можете редактировать свои сообщения
    Вы не можете удалять свои сообщения
    Вы не можете голосовать в опросах
    Вы не можете прикреплять файлы к сообщениям
    Вы можете скачивать файлы