Ссылка на приватное зеркало всего за 1$. Внимание количество ограничено!!!

OK

1+1

iTunes

мы

OK

1

WEB-DLRip

Джокер

Пифагор

Ведьмак / The Witcher сериал

iTunes

ПШазам

ОК

Оно 2

iTunes

30
pack

Вам бонус

ВАЖНО

!!Акция!!

Alien_RageХит недели

RePack

Resident Evil 21

ИГРА 18+

pack

RePack

jed

RePack

fifa19

RePack

Assassins Creed: Odyssey

RePack

NEED FOR SPEED™ PAYBACK

4 сезон

9 сезон

Бесстыжие 9 сезон

Все сериалы

все сериалы на PB.wtf

RePack

FAR CRY 5
  

Механика теней / La mécanique de l'ombre (Томас Крюитоф) [2016, боевик, триллер, BDRip 720p] MVO [Синема УС] pb.wtf

Механика теней через торрент pb.wtf

Размер: 3.73 GB | Добавлен: 2 года 2 мес. назад | Торрент скачан:86 раз
Скачать  

13-11-2017 08:00 Механика теней Скачать торрент  

Механика теней / La mécanique de l'ombre
Год выпуска: 2016
Страна: Франция Бельгия
Жанр: боевик, триллер
Продолжительность: 01:31:51
Перевод: Любительский (многоголосый) | Синема УС
Субтитры: отсутствуют

Режиссер: Томас Крюитоф

rating

В ролях:

Франсуа Клюзе, Дени Подалидес, Сами Буажила, Симон Абкарян, Альба Рорвахер, Филипп Резимон, Дэниэл Ханссенс, Брюно Жори

Описание:

Уставший от безработицы Дюваль, без лишних вопросов становится работником организации, о которой ему толком ничего не известно. Вскоре, Дюваль понимает, что может стать разменной монетой в серьёзных политических интригах...

Качество: BDRip 720p
Формат: MKV
Видео кодек: H.264
Аудио кодек: AC3

Видео: MKV, 5358 Kбит/с, 1280x536
Аудио#: Русский, (AC3, 2 ch, 448 Кбит/с)

скриншот   скриншот   скриншот  

Общее
Уникальный идентификатор : 225492677648915617626985037957136658675 (0xA9A44F5CF92C6ED5887424476A9030F3)
Полное имя : D:\торреннты\La.Mecanique.de.L.Ombre.2016.P.BDRip.72Op_KOSHARA.mkv
Формат : Matroska
Версия формата : Version 2
Размер файла : 3,73 Гбайт
Продолжительность : 1 ч. 31 м.
Режим общего битрейта : Переменный
Общий поток : 5808 Кбит/сек
Дата кодирования : UTC 2017-11-11 19:07:48
Программа кодирования : mkvmerge v8.3.0 ('Over the Horizon') 64bit
Библиотека кодирования : libebml v1.3.1 + libmatroska v1.4.2

Видео
Идентификатор : 1
Формат : AVC
Формат/Информация : Advanced Video Codec
Профиль формата : High@L4.1
Параметр CABAC формата : Да
Параметр ReFrames формата : 12 кадров
Идентификатор кодека : V_MPEG4/ISO/AVC
Продолжительность : 1 ч. 31 м.
Вид битрейта : Переменный
Битрейт : 5358 Кбит/сек
Максимальный битрейт : 6000 Кбит/сек
Ширина : 1280 пикселей
Высота : 536 пикселей
Соотношение сторон : 2,40:1
Режим частоты кадров : Постоянный
Частота кадров : 23,976 (24000/1001) кадра/сек
Стандарт вещания : Component
Цветовое пространство : YUV
Субдискретизация насыщенности : 4:2:0
Битовая глубина : 8 бит
Тип развёртки : Прогрессивная
Бит/(Пиксели*Кадры) : 0.326
Размер потока : 3,44 Гбайт (92%)
Default : Да
Forced : Нет
Цветовой диапазон : Limited
Основные цвета : BT.709
Характеристики трансфера : BT.709
Коэффициенты матрицы : BT.709

Аудио
Идентификатор : 2
Формат : AC-3
Формат/Информация : Audio Coding 3
Расширение режима : CM (complete main)
Параметр Endianness формата : Big
Идентификатор кодека : A_AC3
Продолжительность : 1 ч. 31 м.
Вид битрейта : Постоянный
Битрейт : 448 Кбит/сек
Каналы : 2 канала
Расположение каналов : Front: L R
Частота : 48,0 КГц
Частота кадров : 31,250 кадров/сек (1536 spf)
Метод сжатия : С потерями
Размер потока : 294 Мбайт (8%)
Default : Да
Forced : Нет

pb.wtf



Скачать Механика теней через торрент http://s018.radikal.ru/i524/1711/68/c8bc84ad01f1.png Скачать фильм Механика теней через торрент бесплантно в хорошем качестве Описание: Уставший от безработицы Дюваль, без лишних вопросов становится работником организации, о которой ему толком ничего не известно. ... 8.2 10 5
Торрент: Зарегистрирован [2017-11-13 08:00] · скачан: 86 раз
Статус: # сомнительно
Размер: 3.73 GB
Как cкачать? Как скачать Механика теней через торрент | qTorrent

28-11-2019 20:33  

Отключить всю рекламу на сайте

13-11-2017 09:47 Механика теней Скачать торрент  

до сих пор нет нормальной версии без рекламы?pb.wtf



    Дорогой пользователь! Огромная просьба, поблагодарите релизера, оцените раздачу и оставьте свои комментарий, если Вы скачали Механика теней через торрент бесплатно! Внесите свою лепту в развитие PiratBit!
    Комментировать посты могут только пользователи прошедшие не сложную регистрацию
    Показать сообщения:    

    Механика теней через торрент
    Скачать бесплатно Механика теней
    Механика теней скачать торрент
    Механика теней смотреть онлайн
    Cкачать фильм Механика теней бесплатно
    Механика теней скачать торрент в хорошем качестве
    Механика теней смотреть онлайн бесплатно в хорошем качестве


    Вы не можете начинать темы
    Вы не можете отвечать на сообщения
    Вы не можете редактировать свои сообщения
    Вы не можете удалять свои сообщения
    Вы не можете голосовать в опросах
    Вы не можете прикреплять файлы к сообщениям
    Вы можете скачивать файлы