2 сезон

iTunes

MVO

1

2 сезон

iTunes

iTunes

1 сезон

RePack

30

Ultimate

ВАЖНО

ИГРА 18+

pack

RePack

MK11
pack

Легкие деньги

RePack

jed

RePack

fifa19

RePack

RDR2

RePack

NEED FOR SPEED™ PAYBACK

4 сезон

9 сезон

Бесстыжие 9 сезон

Все сериалы

все сериалы на PB.wtf

RePack

FAR CRY 5

Anonymous, добрый вечер, мы не успеваем собрать деньги на оплату серверов за декабрь и январь, помогите нам пожалуйста в это трудное время. В качестве благодарности мы отключим Вам всю рекламу на сайте (укажите свой ник в строку Ваше имя)!

×
  
Magnet ссылка

Сверхъестественное / Supernatural / Сезон: 1 / Серии 1-22 из 22 (Эрик Крипке) [2005 г., ужасы, фэнтези, триллер, драма, детектив, HDRip-AVC] DUB [Рен-ТВ] pb.wtf

Сверхъестественное через торрент pb.wtf

Раздают: 1 [ 0 KB/s ]
Размер: 20.9 GB | Добавлен: 2 года 10 мес. назад | Торрент скачан:175 раз
Скачать  

13-11-2017 08:59 Сверхъестественное Скачать торрент  

Сверхъестественное / Supernatural /
Сезон: 1 / Серии 1-22 из 22
Год выпуска: 2005
Страна: США
Жанр: ужасы, фэнтези, триллер, драма, детектив
Продолжительность: 00:46:00 серия
Перевод: Дубляж (Рен-ТВ)
Субтитры: отсутствуют

Режиссер: Эрик Крипке

Премьера в мире: 13 сентября 2005

rating

В ролях: Джаред Падалеки, Дженсен Эклс, Джеффри Дин Морган, Джим Бивер, Миша Коллинз, Марк Шеппард, Марк Пеллегрино, Женевьев Падалеки, Кэти Кэссиди, Джеймс Патрик Стюарт, Саманта Феррис и др.

Описание: Сериал рассказывает о приключениях братьев Сэма и Дина Винчестеров, которые путешествуют по Соединённым Штатам на чёрном автомобиле Chevrolet Impala 1967 года, расследуют паранормальные явления, многие из которых основаны на американских городских легендах и фольклоре, и сражаются с порождениями зла, такими как демоны и призраки.

Качество: HDRip-AVC
Формат: MKV
Видео кодек: H.264
Аудио кодек: AC3
Видео: AVC/H.264, 1024х576 (16:9), ~3000 kbps, 0.212 bit/pixel
Аудио#1: Русский: AC3, 2 ch, 192 kbps - Дубляж (Рен-ТВ)
Релиз от: winchester00100010
Сезон 1, серия 1: Pilot ("Пилотная серия")
Сезон 1, серия 2: Wendigo ("Вендиго")
Сезон 1, серия 3: Dead in the Water ("Смерть в воде")
Сезон 1, серия 4: Phantom Traveler ("Пассажир - Призрак")
Сезон 1, серия 5: Bloody Mary ("Кровавая Мэри")
Сезон 1, серия 6: Skin ("Кожа")
Сезон 1, серия 7: Hookman ("Человек с крюком")
Сезон 1, серия 8: Bugs ("Насекомые")
Сезон 1, серия 9: Home ("Дом")
Сезон 1, серия 10: Asylum ("Изолятор")
Сезон 1, серия 11: Scarecrow ("Пугало")
Сезон 1, серия 12: Faith ("Вера")
Сезон 1, серия 13: Route 666 ("Трасса 666")
Сезон 1, серия 14: Nightmare ("Кошмар")
Сезон 1, серия 15: The Benders ("Охотники")
Сезон 1, серия 16: Shadow ("Тень")
Сезон 1, серия 17: Hell House ("Адский дом")
Сезон 1, серия 18: Something Wicked ("Нечто злое")
Сезон 1, серия 19: Provenance ("Происхождение")
Сезон 1, серия 20: Dead Man's Blood ("Кровь мертвеца")
Сезон 1, серия 21: Salvation ("Спасение")
Сезон 1, серия 22: Devil's Trap ("Ловушка дьявола")

Общее
Уникальный идентификатор : 254866339245311918402276989311499968353 (0xBFBD78B16614DEAA9AA69FD83A511F61)
Полное имя : D:\Торрент файлы раздач вместе с фильмами\Supernatural.S01.2005.HDRip-AVC\Supernatural.S01.E01.HDRip-AVC.mkv
Формат : Matroska
Версия формата : Version 2
Размер файла : 1,04 Гбайт
Продолжительность : 46 м. 24 с.
Общий поток : 3193 Кбит/сек
Дата кодирования : UTC 2017-05-21 20:28:22
Программа кодирования : mkvmerge v7.8.0 ('River Man') 32bit built on Apr 3 2015 12:11:22
Библиотека кодирования : libebml v1.3.1 + libmatroska v1.4.2

Видео
Идентификатор : 1
Формат : AVC
Формат/Информация : Advanced Video Codec
Профиль формата : High@L4.1
Настройки формата : CABAC / 11 Ref Frames
Параметр CABAC формата : Да
Параметр RefFrames формата : 11 кадров
Идентификатор кодека : V_MPEG4/ISO/AVC
Продолжительность : 46 м. 24 с.
Битрейт : 3000 Кбит/сек
Ширина : 1024 пикселя
Высота : 576 пикселей
Соотношение сторон : 16:9
Режим частоты кадров : Постоянный
Частота кадров : 23,976 (24000/1001) кадра/сек
Цветовое пространство : YUV
Субдискретизация насыщенности : 4:2:0
Битовая глубина : 8 бит
Тип развёртки : Прогрессивная
Бит/(Пиксели*Кадры) : 0.212
Размер потока : 975 Мбайт (92%)
Библиотека кодирования : x264 core 146 r2538 121396c
Настройки программы : cabac=1 / ref=11 / deblock=1:-3:-3 / analyse=0x3:0x113 / me=umh / subme=9 / psy=1 / psy_rd=1.00:0.00 / mixed_ref=1 / me_range=24 / chroma_me=1 / trellis=2 / 8x8dct=1 / cqm=0 / deadzone=21,11 / fast_pskip=0 / chroma_qp_offset=-2 / threads=12 / lookahead_threads=2 / sliced_threads=0 / nr=0 / decimate=0 / interlaced=0 / bluray_compat=0 / constrained_intra=0 / bframes=6 / b_pyramid=2 / b_adapt=2 / b_bias=0 / direct=3 / weightb=1 / open_gop=0 / weightp=2 / keyint=240 / keyint_min=23 / scenecut=40 / intra_refresh=0 / rc_lookahead=40 / rc=2pass / mbtree=0 / bitrate=3000 / ratetol=1.0 / qcomp=0.60 / qpmin=0 / qpmax=69 / qpstep=4 / cplxblur=20.0 / qblur=0.5 / vbv_maxrate=14000 / vbv_bufsize=14000 / nal_hrd=none / filler=0 / ip_ratio=1.40 / pb_ratio=1.30 / aq=1:1.00
Default : Да
Forced : Нет

Аудио
Идентификатор : 2
Формат : AC-3
Формат/Информация : Audio Coding 3
Идентификатор кодека : A_AC3
Продолжительность : 46 м. 24 с.
Вид битрейта : Постоянный
Битрейт : 192 Кбит/сек
Каналы : 2 канала
Расположение каналов : Front: L R
Частота : 48,0 КГц
Частота кадров : 31,250 кадров/сек (1536 SPF)
Битовая глубина : 16 бит
Метод сжатия : С потерями
Размер потока : 63,7 Мбайт (6%)
ServiceKind/String : Complete Main
Default : Да
Forced : Нет

pb.wtf



Скачать Сверхъестественное через торрент http://pic1.kartinco.top/images/11/tgm2j.jpg Скачать фильм Сверхъестественное через торрент бесплантно в хорошем качестве Описание: Сериал рассказывает о приключениях братьев Сэма и Дина Винчестеров, которые путешествуют по Соединённым Штатам на чёрном ... 9.2 10 11
Info! Золотая раздача, скачанное не засчитывается.
Торрент: Зарегистрирован [2018-02-27 02:21] · скачан: 175 раз
Статус: √ проверено
Размер: 20.9 GB
Как cкачать? Как скачать Сверхъестественное через торрент | UTorrent

% Раздел Тема Автор DL S | L
Сверхъестественное (Supernatural) [ 6.05 GB ] Сверхъестественное / Supernatural / Сезон: 1 / Серии 1-2 из 22 [2005 BDRip 1080p] DUB [Рен-Тв] winchester00100010 Скачать
1 | 0
Сверхъестественное (Supernatural) [ 17.18 GB ] Сверхъестественное / Supernatural / Сезон: 2 / Серии: 1-22 из 22 [2006 BDRip] DUB [Рен-ТВ] winchester00100010 Скачать
1 | 0
Сверхъестественное (Supernatural) [ 12.9 GB ] Сверхъестественное / Supernatural / Сезон: 1 / Серии 1-22 из 22 [2005 BDRip] DUB [Рен-ТВ] winchester00100010 Скачать
1 | 0
Сверхъестественное (Supernatural) [ 15.91 GB ] Сверхъестественное / Supernatural / Сезон: 6 / Серии 1-22 из 22 [2010 HDRip-AVC DUB ] winchester00100010 Скачать
1 | 0
Сверхъестественное (Supernatural) [ 15.76 GB ] Сверхъестественное / Supernatural / Сезон: 2 / Серии 1-22 из 22 [2006 HDRip-AVC] DUB [Рен-ТВ] winchester00100010 Скачать
2 | 0
Сверхъестественное (Supernatural) [ 25.74 GB ] Сверхъестественное / Supernatural / Сезон: 1 / Серии 1-12 из 22 [2005 BDRip 720p Dub] winchester00100010 Скачать
1 | 0
Сверхъестественное (Supernatural) [ 15.87 GB ] Сверхъестественное / Supernatural / Сезон: 5 / Серии 1-22 из 22 [2009 HDRip-AVC DUB ] winchester00100010 Скачать
1 | 0


Последний раз редактировалось: winchester00100010 (2018-02-27 02:21), всего редактировалось 1 раз

28-11-2019 20:33  

Отключить всю рекламу на сайте

10-12-2017 17:39 Сверхъестественное Скачать торрент  

Перезалил торрент файлик, так как человек писал вконтакте мне, что он не может скачать и не качается раздача, перекачайте торрентpb.wtf



29-03-2018 15:48 Сверхъестественное Скачать торрент  

Продолжаю стоять на раздаче, благодарю за то что помогали раздавать, продолжайте в том же духе и стойте как можно дольше на раздаче)pb.wtf



    Дорогой пользователь! Огромная просьба, поблагодарите релизера, оцените раздачу и оставьте свои комментарий, если Вы скачали Сверхъестественное через торрент бесплатно! Внесите свою лепту в развитие PiratBit!
    Комментировать посты могут только пользователи прошедшие не сложную регистрацию
    Показать сообщения:    

    Сверхъестественное через торрент
    Скачать бесплатно Сверхъестественное
    Сверхъестественное скачать торрент
    Сверхъестественное смотреть онлайн
    Cкачать фильм Сверхъестественное бесплатно
    Сверхъестественное скачать торрент в хорошем качестве
    Сверхъестественное смотреть онлайн бесплатно в хорошем качестве


    Вы не можете начинать темы
    Вы можете отвечать на сообщения
    Вы не можете редактировать свои сообщения
    Вы не можете удалять свои сообщения
    Вы не можете голосовать в опросах
    Вы не можете прикреплять файлы к сообщениям
    Вы можете скачивать файлы