2 сезон

iTunes

MVO

1

2 сезон

iTunes

iTunes

1 сезон

RePack

30

Новинка

ВАЖНО

ИГРА 18+

pack

RePack

MK11
pack

Легкие деньги

RePack

jed

RePack

fifa19

RePack

RDR2

RePack

NEED FOR SPEED™ PAYBACK

4 сезон

9 сезон

Бесстыжие 9 сезон

Все сериалы

все сериалы на PB.wtf

RePack

FAR CRY 5

Anonymous, добрый вечер, мы не успеваем собрать деньги на оплату серверов за декабрь и январь, помогите нам пожалуйста в это трудное время. В качестве благодарности мы отключим Вам всю рекламу на сайте (укажите свой ник в строку Ваше имя)!

×
  
Magnet ссылка

Сверхъестественное / Supernatural / Сезон: 2 / Серии 1-22 из 22 (Эрик Крипке) [2006 г., ужасы, фэнтези, триллер, драма, детектив, HDRip-AVC] DUB [Рен-ТВ] pb.wtf

Сверхъестественное через торрент pb.wtf

Раздают: 1 [ 0 KB/s ]
Размер: 15.76 GB | Добавлен: 2 года 10 мес. назад | Торрент скачан:110 раз
Скачать  

13-11-2017 10:12 Сверхъестественное Скачать торрент  

Сверхъестественное / Supernatural /
Сезон: 2 / Серии 1-22 из 22
Год выпуска: 2006
Страна: США
Жанр: ужасы, фэнтези, триллер, драма, детектив
Продолжительность: 00:42:00 серия
Перевод: Дубляж (Рен-ТВ)
Субтитры: отсутствуют

Режиссер: Эрик Крипке

Премьера в мире: 13 сентября 2005

rating

В ролях: Джаред Падалеки, Дженсен Эклс, Джеффри Дин Морган, Джим Бивер, Миша Коллинз, Марк Шеппард, Марк Пеллегрино, Женевьев Падалеки, Кэти Кэссиди, Джеймс Патрик Стюарт, Саманта Феррис и др.

Описание: Сериал рассказывает о приключениях братьев Сэма и Дина Винчестеров, которые путешествуют по Соединённым Штатам на чёрном автомобиле Chevrolet Impala 1967 года, расследуют паранормальные явления, многие из которых основаны на американских городских легендах и фольклоре, и сражаются с порождениями зла, такими как демоны и призраки.

Качество: HDRip-AVC
Формат: MKV
Видео кодек: H.264
Аудио кодек: AC3
Видео: AVC/H.264, 1024х576 (16:9), ~2290 kbps, 0.162 bit/pixel
Аудио#1: Русский: AC3, 2 ch, 192 kbps - Дубляж (Рен-ТВ)
Релиз от: winchester00100010
1. Когда придет мой смертный час (In My Time of Dying)
2. Все любят клоуна (Everybody Loves a Clown)
3. Жажда крови (Bloodlust)
4. Трупы детям не игрушки (Children Shouldn't Play with Dead Things)
5. Саймон говорит... (Simon Said)
6. Выхода нет (No Exit)
7. Обычные подозреваемые (The Usual Suspects)
8. Блюз на перекрестке ( Crossroad Blues )
9. Кроатан (Croatoan)
10. Жертва ( Hunted )
11. Игрушки ( Playthings )
12. Ночной оборотень ( Night Shifter )
13. Небеса обетованные (Houses of the Holy)
14. Рожденный под Дурным Знаком (Born Under a Bad Sign)
15. Небывальщина (Tall Tales)
16. Смерть на Дороге (Roadkill)
17. Сердце (Heart)
18. Голливудский Вавилон (Hollywood Babylon)
19. Фольсомский Тюремный Блюз (Folsom Prison Blues)
20. Несбыточные Мечты и Сбывшиеся Желания (What Is and What Should Never Be)
21. "...И преисподняя раскрыла пасть свою" ЧАСТЬ I (All Hell Breaks Loose" PART I)
22. "...И преисподняя раскрыла пасть свою" ЧАСТЬ II (All Hell Breaks Loose" PART II)

Общее
Уникальный идентификатор : 180878017441092334419533166374953116365 (0x8813D6C92BABFB059DE65E9D72AF62CD)
Полное имя : D:\Торрент файлы раздач вместе с фильмами\Supernatural.S02.2006-2007.HDRip-AVC\Supernatural.S02E01.hdrip-avc.mkv
Формат : Matroska
Версия формата : Version 2
Размер файла : 749 Мбайт
Продолжительность : 42 м. 11 с.
Общий поток : 2482 Кбит/сек
Дата кодирования : UTC 2017-10-12 16:30:26
Программа кодирования : mkvmerge v7.8.0 ('River Man') 32bit built on Apr 3 2015 12:11:22
Библиотека кодирования : libebml v1.3.1 + libmatroska v1.4.2

Видео
Идентификатор : 1
Формат : AVC
Формат/Информация : Advanced Video Codec
Профиль формата : High@L4.1
Настройки формата : CABAC / 12 Ref Frames
Параметр CABAC формата : Да
Параметр RefFrames формата : 12 кадров
Идентификатор кодека : V_MPEG4/ISO/AVC
Продолжительность : 42 м. 11 с.
Битрейт : 2290 Кбит/сек
Ширина : 1024 пикселя
Высота : 576 пикселей
Соотношение сторон : 16:9
Режим частоты кадров : Постоянный
Частота кадров : 23,976 (24000/1001) кадра/сек
Цветовое пространство : YUV
Субдискретизация насыщенности : 4:2:0
Битовая глубина : 8 бит
Тип развёртки : Прогрессивная
Бит/(Пиксели*Кадры) : 0.162
Размер потока : 676 Мбайт (90%)
Библиотека кодирования : x264 core 146 r2538 121396c
Настройки программы : cabac=1 / ref=12 / deblock=1:-3:-3 / analyse=0x3:0x113 / me=umh / subme=9 / psy=1 / psy_rd=1.00:0.00 / mixed_ref=1 / me_range=24 / chroma_me=1 / trellis=2 / 8x8dct=1 / cqm=0 / deadzone=21,11 / fast_pskip=0 / chroma_qp_offset=-2 / threads=12 / lookahead_threads=2 / sliced_threads=0 / nr=0 / decimate=0 / interlaced=0 / bluray_compat=0 / constrained_intra=0 / bframes=6 / b_pyramid=2 / b_adapt=2 / b_bias=0 / direct=3 / weightb=1 / open_gop=0 / weightp=2 / keyint=240 / keyint_min=23 / scenecut=40 / intra_refresh=0 / rc_lookahead=40 / rc=2pass / mbtree=0 / bitrate=2290 / ratetol=1.0 / qcomp=0.60 / qpmin=0 / qpmax=69 / qpstep=4 / cplxblur=20.0 / qblur=0.5 / vbv_maxrate=14000 / vbv_bufsize=14000 / nal_hrd=none / filler=0 / ip_ratio=1.40 / pb_ratio=1.30 / aq=1:0.80
Default : Да
Forced : Нет

Аудио
Идентификатор : 2
Формат : AC-3
Формат/Информация : Audio Coding 3
Идентификатор кодека : A_AC3
Продолжительность : 42 м. 11 с.
Вид битрейта : Постоянный
Битрейт : 192 Кбит/сек
Каналы : 2 канала
Расположение каналов : Front: L R
Частота : 48,0 КГц
Частота кадров : 31,250 кадров/сек (1536 SPF)
Битовая глубина : 16 бит
Метод сжатия : С потерями
Размер потока : 57,9 Мбайт (8%)
ServiceKind/String : Complete Main
Default : Да
Forced : Нет

pb.wtf



Скачать Сверхъестественное через торрент http://pic1.kartinco.top/images/11/5gvy9.jpg Скачать фильм Сверхъестественное через торрент бесплантно в хорошем качестве Описание: Сериал рассказывает о приключениях братьев Сэма и Дина Винчестеров, которые путешествуют по Соединённым Штатам на чёрном ... 8.5 10 6
Торрент: Зарегистрирован [2018-02-27 01:56] · скачан: 110 раз
Статус: √ проверено
Размер: 15.76 GB
Как cкачать? Как скачать Сверхъестественное через торрент | UTorrent

% Раздел Тема Автор DL S | L
Сверхъестественное (Supernatural) [ 6.05 GB ] Сверхъестественное / Supernatural / Сезон: 1 / Серии 1-2 из 22 [2005 BDRip 1080p] DUB [Рен-Тв] winchester00100010 Скачать
1 | 0
Сверхъестественное (Supernatural) [ 17.18 GB ] Сверхъестественное / Supernatural / Сезон: 2 / Серии: 1-22 из 22 [2006 BDRip] DUB [Рен-ТВ] winchester00100010 Скачать
1 | 0
Сборники и Сиквелы (48-60 fps) [ 41.4 GB ] Сверхъестественное / Supernatural / 2 сезон / Серии 1-22 из 22 [2006. BDRip-AVC 60fps DUB MVO Original] от R.G. HD-Films Tiberiumsun69 Скачать
1 | 0


Последний раз редактировалось: winchester00100010 (2018-02-27 01:56), всего редактировалось 1 раз

28-11-2019 20:33  

Отключить всю рекламу на сайте

10-12-2017 19:19 Сверхъестественное Скачать торрент  

Перезалил торрент файлик, так как человек писал вконтакте мне, что он не может скачать и не качается раздача, перекачайте торрентpb.wtf



29-03-2018 15:50 Сверхъестественное Скачать торрент  

Продолжаю стоять на раздаче, благодарю за то что помогали раздавать, продолжайте в том же духе и стойте как можно дольше на раздаче))pb.wtf



    Дорогой пользователь! Огромная просьба, поблагодарите релизера, оцените раздачу и оставьте свои комментарий, если Вы скачали Сверхъестественное через торрент бесплатно! Внесите свою лепту в развитие PiratBit!
    Комментировать посты могут только пользователи прошедшие не сложную регистрацию
    Показать сообщения:    

    Сверхъестественное через торрент
    Скачать бесплатно Сверхъестественное
    Сверхъестественное скачать торрент
    Сверхъестественное смотреть онлайн
    Cкачать фильм Сверхъестественное бесплатно
    Сверхъестественное скачать торрент в хорошем качестве
    Сверхъестественное смотреть онлайн бесплатно в хорошем качестве


    Вы не можете начинать темы
    Вы можете отвечать на сообщения
    Вы не можете редактировать свои сообщения
    Вы не можете удалять свои сообщения
    Вы не можете голосовать в опросах
    Вы не можете прикреплять файлы к сообщениям
    Вы можете скачивать файлы