Ссылка на приватное зеркало нашего сайта всего за 1$. Внимание количество ограничено!!!

2 сезон

iTunes

1 сезон

1

iTunes

iTunes

iTunes

1 сезон

RePack

30

ИГРА 18+

pack

ВАЖНО

!!Акция!!

Alien_RageХит недели

RePack

MK11
pack

Забери бонус

RePack

jed

!!Акция!!

Alien_Rage

RePack

fifa19

RePack

Assassins Creed: Odyssey

RePack

NEED FOR SPEED™ PAYBACK

4 сезон

9 сезон

Бесстыжие 9 сезон

Все сериалы

все сериалы на PB.wtf

RePack

FAR CRY 5
  

Морозова / Серия 1-50 из 50 (Иван Щёголев, Сергей Лесогоров) [2017 г., детектив, криминальный фильм, мелодрама, SATRip] pb.wtf

Морозова через торрент pb.wtf

Размер: 32.59 GB | Добавлен: 2 года 10 мес. назад | Торрент скачан:44 раза
Скачать  

13-11-2017 10:23 Морозова Скачать торрент  

Морозова / Серия 1-50 из 50
Год выпуска: 2017
Страна: Россия
Жанр: детектив, криминальный фильм, мелодрама
Продолжительность: 50x ~ 00:44:00
Субтитры: Нет

Режиссер: Иван Щёголев, Сергей Лесогоров

В ролях: Тара Амирханова, Дмитрий Мазуров, Андрей Носков, Дмитрий Блохин, Татьяна Лянник, Пётр Грезев, Кирилл Снегирёв, Дарья Корнева, Лёля Баранова, Александр Коротков (II), Александр Левин (II), Анастасия Бухарцева, Александр Касаткин (II), Олег Тарасов (II), Юлия Носова, Андрей Москвичёв, Максим Карушев, Дарья Петриченко, Валерий Сторожик

Описание: Анна Морозова (Тара Амирханова) - начальник отдела традиционных экспертиз областного экспертно-криминалистического центра г. Калуги. Предмет ее исследования – улики и следы на месте преступления. В свое время Анна Михайловна прошла весь путь от стажера до начальника отдела, поэтому разбирается во всем.
Дотошный характер Морозовой давно стал «притчей во языцех» как для коллег, так и для начальства. Зам. начальника областного УМВД Родионова (Марианна Шульц) знает: если дело попало в руки Морозовой, значит, жди сюрпризов. Ведь она непременно раскопает какую-нибудь новую версию, подвергая сомнению самые, казалось бы, очевидные факты.
Есть в управлении и следователь, с которым Морозова очень любит работать – майор Авдеев (Дмитрий Блохин). Он вдумчивый и надежный, хотя и слегка флегматичный.
Нередко к раскрытию уголовных дел в Москве Морозову привлекает ее учитель – Валерий Зайцев (Александр Галибин). Он был бы рад, если бы Морозова, эксперт от Бога, переехала из провинциальной Калуги в Москву. Но уговорить ее никак не удается. Сердцем Морозова накрепко прикипела к Калуге.
А вот на личном фронте у майора Морозовой не все так безоблачно. С мужем хирургом Романом (Дмитрий Мазуров) она развелась несколько лет назад....

Качество: SATRip
Формат: AVI
Видео кодек: XviD
Аудио кодек: MP3
Видео: 720x400, 25 fps, XviD build 50 ~1800 kbps avg, 0.25 bit/pixel
Аудио#1: 48 kHz, MPEG Layer 3, 2 ch, ~128.00 kbps avg
General
Complete name : H:\релизы.торрентфайл\Морозова(2017)\Morozova.01.SATRip.[www.riperam.org].avi
Format : AVI
Format/Info : Audio Video Interleave
File size : 651 MiB
Duration : 46mn 59s
Overall bit rate : 1 938 Kbps
Writing application : VirtualDubMod 1.5.10.3 | www.virtualdub-fr.org || (build 2550/release)
Writing library : VirtualDubMod build 2550/release

Video
ID : 0
Format : MPEG-4 Visual
Format profile : Advanced Simple@L5
Format settings, BVOP : 2
Format settings, QPel : No
Format settings, GMC : No warppoints
Format settings, Matrix : Default (H.263)
Codec ID : XVID
Codec ID/Hint : XviD
Duration : 46mn 59s
Bit rate : 1 800 Kbps
Width : 720 pixels
Height : 400 pixels
Display aspect ratio : 16:9
Frame rate : 25.000 fps
Color space : YUV
Chroma subsampling : 4:2:0
Bit depth : 8 bits
Scan type : Progressive
Compression mode : Lossy
Bits/(Pixel*Frame) : 0.250
Stream size : 605 MiB (93%)
Writing library : XviD 1.2.1 (UTC 2008-12-04)

Audio
ID : 1
Format : MPEG Audio
Format version : Version 1
Format profile : Layer 3
Mode : Joint stereo
Mode extension : MS Stereo
Codec ID : 55
Codec ID/Hint : MP3
Duration : 46mn 59s
Bit rate mode : Constant
Bit rate : 128 Kbps
Channel(s) : 2 channels
Sampling rate : 48.0 KHz
Compression mode : Lossy
Stream size : 43.0 MiB (7%)
Alignment : Aligned on interleaves
Interleave, duration : 40 ms (1.00 video frame)
Interleave, preload duration : 504 ms
Writing library : LAME3.99r
Encoding settings : -m j -V 4 -q 9 -lowpass 17 -b 128

Внимание! Раздача ведётся путём добавления новых серий; при каждом добавлении создётся новый торрент. Чтобы начать докачку новой серии, пользователям необходимо сделать следующее:
  • Остановить скачивание,
  • Удалить старый торрент у себя из клиента (старые серии удалять не надо),
  • Скачать новый торрент и запустить его у себя в клиенте вместо старого, при этом указать клиенту путь в старую папку куда и должно происходить скачивание новых серий.
Ваш клиент при этом должен произвести хеширование (проверку) старой папки (если не производит сам - помогите ему сделать это), и будет докачивать только те серии которых у вас ещё нет. Старые серии при этом не удаляются, а продолжают раздаваться!

Eсли вы уже удалили старые серии, то предотвратить повторную закачку старых серий можно, отжав галочку в соответсвующих местах при запуске нового торрента. По возможности, желательно не удалять старые серии как можно дольше чтобы релизёр не столько продолжал раздавать старые серии, а смог сконцентрироваться на новых.
pb.wtf



Скачать Морозова через торрент http://funkyimg.com/i/2Aqf1.jpg Скачать фильм Морозова через торрент бесплантно в хорошем качестве Описание: Анна Морозова (Тара Амирханова) - начальник отдела традиционных экспертиз областного экспертно-криминалистического центра г. ... 8.8 10 16
Info! Золотая раздача, скачанное не засчитывается.
Торрент: Зарегистрирован [2017-12-18 14:50] · скачан: 44 раз
Статус: √ проверено
Размер: 32.59 GB
Как cкачать? Как скачать Морозова через торрент | qTorrent

% Раздел Тема Автор DL S | L
Наши сериалы [ 29.04 GB ] Морозова / Сезон: 2 / Серии: 1-50 из 50 [2018 HDTVRip] bober100 Скачать
1 | 0
Наши сериалы [ 130.05 GB ] Морозова / Сезон: 2 / Серии: 1-50 из 50 [2018 HDTV 1080i] bober100 Скачать
1 | 0
Наши сериалы [ 37.14 GB ] Морозова / Сезон: 2 / Серии: 1-50 из 50 [2018 HDTVRip-AVC] bober100 Скачать
1 | 0
Наши сериалы [ 33.06 GB ] Морозова / Сезон: 2 / Серии: 1-50 из 50 [2018 SATRip] bober100 Скачать
1 | 0


Последний раз редактировалось: oleg8 (2017-12-18 14:50), всего редактировалось 23 раз(а)

28-11-2019 20:33  

Отключить всю рекламу на сайте

    Дорогой пользователь! Огромная просьба, поблагодарите релизера, оцените раздачу и оставьте свои комментарий, если Вы скачали Морозова через торрент бесплатно! Внесите свою лепту в развитие PiratBit!
    Комментировать посты могут только пользователи прошедшие не сложную регистрацию
    Показать сообщения:    

    Морозова через торрент
    Скачать бесплатно Морозова
    Морозова скачать торрент
    Морозова смотреть онлайн
    Cкачать фильм Морозова бесплатно
    Морозова скачать торрент в хорошем качестве
    Морозова смотреть онлайн бесплатно в хорошем качестве


    Вы не можете начинать темы
    Вы не можете отвечать на сообщения
    Вы не можете редактировать свои сообщения
    Вы не можете удалять свои сообщения
    Вы не можете голосовать в опросах
    Вы не можете прикреплять файлы к сообщениям
    Вы можете скачивать файлы