MEGA SALE -50% FORZA HORIZON 4 ULTIMATE+ВСЕ DLC+ОНЛАЙН всего за 599р. 299 руб. (супер цена). Внимание количество ограничено!!!

iTunes

1+1

iTunes

мы

iTunes

1

iTunes

Чернобыль

iTunes

Ральф против интернета

Лицензия

ПШазам

Лицензия

Игра престолов

Лицензия

30
pack

ВАЖНО

!!Акция!!

Alien_RageХит недели

RePack

Resident Evil 21

ИГРА 18+

pack

RePack

Metro:Exodus

!!Акция!!

Alien_Rage

RePack

fifa19

RePack

Assassins Creed: Odyssey

RePack

NEED FOR SPEED™ PAYBACK

3 сезон

9 сезон

Бесстыжие 9 сезон

Все сериалы

все сериалы на PB.wtf

RePack

FAR CRY 5
Ребята, катастрофически не хватает 7730р. для оплаты серверов за АВГУСТ (всвязи с блокировками трафик упал в 3 раза), 1-2р., выручайте.
  

Хэллоуин 2 / Halloween II (Рик Розенталь) [1981 г., Ужасы, Триллер, BDRip-AVC, MVO (Лицензия)] pb.wtf

Хэллоуин 2 через торрент pb.wtf

Размер: 1.97 GB | Добавлен: 1 год 6 мес. назад | Торрент скачан:22 раза
Скачать  

13-11-2017 13:15 Хэллоуин 2 Скачать торрент  

Хэллоуин 2 / Halloween IIГод выпуска: 1981
Страна: США
Жанр: Ужасы, Триллер
Продолжительность: 01:32:32
Перевод: Профессиональный (многоголосый) (Лицензия)
Субтитры: отсутствуют

Режиссер: Рик Розенталь

Премьера в мире: 30 октября 1981

rating

В ролях: Дональд Плезенс, Джейми Ли Кёртис, Чарльз Сайферс, Джефри Крамер, Лэнс Гест, Памела Сьюзан Шуп и др.

Описание: 31 октября 1975 года. По городу проносится волна кровавых убийств. Жители шепотом произносят имя Майкла Майерса, кровавого маньяка, который вернулся как раз на Хэллоуин. Его прежняя жертва, Лори Строуд, выжила, и он вернулся, чтобы закончить начатое. На сей раз преследования Лори приводят его в больницу, и в ее темных коридорах хладнокровный неубиваемый психопат находит свои жертвы.

Качество: BDRip-AVC
Формат: MKV
Видео кодек: H.264
Аудио кодек: AC3
Видео: AVC/H.264, 1024х436, (2,35:1), ~2600 kbps, 0.243 bit/pixel
Аудио#1: Русский: AC3, 6 ch, 448 kbps - Профессиональный (многоголосый) (Лицензия)
Релиз от: winchester00100010
Общее
Уникальный идентификатор : 182195000044274338326738118599057851463 (0x89117B0A9631C063A8E739C7CD8BC447)
Полное имя : D:\Торрент файлы раздач вместе с фильмами\Halloween.2.1981.x264.BDRip-AVC.mkv
Формат : Matroska
Версия формата : Version 2
Размер файла : 1,97 Гбайт
Продолжительность : 1 ч. 32 м.
Общий поток : 3047 Кбит/сек
Название фильма : rip by winchester00100010
Дата кодирования : UTC 2017-05-16 16:10:13
Программа кодирования : mkvmerge v5.8.0 ('No Sleep / Pillow') built on Sep 2 2012 15:37:04
Библиотека кодирования : libebml v1.2.3 + libmatroska v1.3.0

Видео
Идентификатор : 1
Формат : AVC
Формат/Информация : Advanced Video Codec
Профиль формата : High@L4.1
Настройки формата : CABAC / 9 Ref Frames
Параметр CABAC формата : Да
Параметр RefFrames формата : 9 кадров
Идентификатор кодека : V_MPEG4/ISO/AVC
Продолжительность : 1 ч. 32 м.
Битрейт : 2600 Кбит/сек
Ширина : 1024 пикселя
Высота : 436 пикселей
Соотношение сторон : 2,35:1
Режим частоты кадров : Постоянный
Частота кадров : 23,976 (24000/1001) кадра/сек
Цветовое пространство : YUV
Субдискретизация насыщенности : 4:2:0
Битовая глубина : 8 бит
Тип развёртки : Прогрессивная
Бит/(Пиксели*Кадры) : 0.243
Размер потока : 1,64 Гбайт (83%)
Заголовок : Halloween.2.1981.x264.BDRip-AVC
Библиотека кодирования : x264 core 142 r2409+42 04be48a tMod [8-bit@4:2:0 X86]
Настройки программы : cabac=1 / ref=9 / deblock=1:-2:-2 / analyse=0x3:0x133 / me=umh / subme=11 / psy=1 / fade_compensate=0.00 / psy_rd=1.00:0.20 / mixed_ref=1 / me_range=32 / chroma_me=1 / trellis=2 / 8x8dct=1 / cqm=0 / deadzone=21,11 / fast_pskip=0 / chroma_qp_offset=-3 / threads=3 / lookahead_threads=1 / sliced_threads=0 / nr=0 / decimate=0 / interlaced=0 / bluray_compat=0 / constrained_intra=0 / fgo=0 / bframes=8 / b_pyramid=2 / b_adapt=2 / b_bias=0 / direct=3 / weightb=1 / open_gop=0 / weightp=2 / keyint=240 / keyint_min=23 / scenecut=40 / intra_refresh=0 / rc=2pass / mbtree=0 / bitrate=2600 / ratetol=1.0 / qcomp=0.60 / qpmin=0:0:0 / qpmax=69:69:69 / qpstep=4 / cplxblur=20.0 / qblur=0.5 / ip_ratio=1.40 / pb_ratio=1.30 / aq=1:1.00 / aq-sensitivity=10.00 / aq-factor=1.00:1.00:1.00 / aq2=0 / aq3=0
Язык : English
Default : Да
Forced : Нет

Аудио
Идентификатор : 2
Формат : AC-3
Формат/Информация : Audio Coding 3
Идентификатор кодека : A_AC3
Продолжительность : 1 ч. 32 м.
Вид битрейта : Постоянный
Битрейт : 448 Кбит/сек
Каналы : 6 каналов
Расположение каналов : Front: L C R, Side: L R, LFE
Частота : 48,0 КГц
Частота кадров : 31,250 кадров/сек (1536 SPF)
Битовая глубина : 16 бит
Метод сжатия : С потерями
Размер потока : 296 Мбайт (15%)
Заголовок : MVO RUS (R5)
Язык : Russian
ServiceKind/String : Complete Main
Default : Да
Forced : Да

Меню
00:00:00.000 : en:00:00:00.000
00:04:18.425 : en:00:04:18.425
00:07:17.896 : en:00:07:17.896
00:12:23.993 : en:00:12:23.993
00:17:24.961 : en:00:17:24.961
00:19:59.990 : en:00:19:59.990
00:22:01.987 : en:00:22:01.987
00:26:49.983 : en:00:26:49.983
00:33:20.957 : en:00:33:20.957
00:41:26.984 : en:00:41:26.984
00:44:21.951 : en:00:44:21.951
00:55:02.925 : en:00:55:02.925
00:58:36.638 : en:00:58:36.638
01:03:17.961 : en:01:03:17.961
01:07:35.218 : en:01:07:35.218
01:13:14.932 : en:01:13:14.932
01:25:29.374 : en:01:25:29.374
01:27:55.770 : en:01:27:55.770

pb.wtf



Скачать Хэллоуин 2 через торрент http://pic1.kartinco.top/images/11/px4wc.jpg Скачать фильм Хэллоуин 2 через торрент бесплантно в хорошем качестве Описание: 31 октября 1975 года. По городу проносится волна кровавых убийств. Жители шепотом произносят имя Майкла Майерса, кровавого ... 10 10 4
Торрент: Зарегистрирован [2018-02-26 23:48] · скачан: 22 раз
Статус: √ проверено
Размер: 1.97 GB
Как cкачать? Как скачать Хэллоуин 2 через торрент | qTorrent

% Раздел Тема Автор DL S | L
Фильмы [HD 720p, 1080p] (Хороший звук DUB, MVO) [ 4.33 GB ] Хэллоуин 2 / Halloween II [1981 BDRip 720p] MVO [] winchester00100010 Скачать
1 | 0
Фильмы 2009 [ 1.37 GB ] Хэллоуин 2 / Halloween II [2009 HDRip DVO] Яйцеслав Скачать
1 | 0
Фильмы 2009 [ 1.21 GB ] Хэллоуин 2 / Halloween II [2009 DVDRip] tyry999 Скачать
1 | 0


Последний раз редактировалось: winchester00100010 (2018-02-26 23:48), всего редактировалось 1 раз


>> Регистрируемся здесь <<






Отзывы и комментарии о схеме читаем и пишем здесь: ---> Отзывы и комментарии о схеме

Новые благодарочки в телеграм довольных пользователей:
скриншот   скриншот   скриншот   скриншот   скриншот

10-12-2017 19:34 Хэллоуин 2 Скачать торрент  

Перезалил торрент файлик, так как человек писал вконтакте мне, что он не может скачать и не качается раздача, перекачайте торрентpb.wtf



    Дорогой пользователь! Огромная просьба, поблагодарите релизера, оцените раздачу и оставьте свои комментарий, если Вы скачали Хэллоуин 2 через торрент бесплатно! Внесите свою лепту в развитие PiratBit!
    Комментировать посты могут только пользователи прошедшие не сложную регистрацию
    Показать сообщения:    

    Хэллоуин 2 через торрент
    Скачать бесплатно Хэллоуин 2
    Хэллоуин 2 скачать торрент
    Хэллоуин 2 смотреть онлайн
    Cкачать фильм Хэллоуин 2 бесплатно
    Хэллоуин 2 скачать торрент в хорошем качестве
    Хэллоуин 2 смотреть онлайн бесплатно в хорошем качестве


    Вы не можете начинать темы
    Вы не можете отвечать на сообщения
    Вы не можете редактировать свои сообщения
    Вы не можете удалять свои сообщения
    Вы не можете голосовать в опросах
    Вы не можете прикреплять файлы к сообщениям
    Вы можете скачивать файлы