MEGA NEWS Получи личный уникальный адрес сайта и защити себя от блокировок. Внимание количество ограничено!!!

iTunes

1+1

iTunes

мы

iTunes

1

iTunes

Чернобыль

iTunes

Ральф против интернета

Лицензия

ПШазам

Лицензия

Игра престолов

Лицензия

30
pack

ВАЖНО

!!Акция!!

Alien_RageХит недели

RePack

Resident Evil 21

ИГРА 18+

pack

RePack

Metro:Exodus

!!Акция!!

Alien_Rage

RePack

fifa19

RePack

Assassins Creed: Odyssey

RePack

NEED FOR SPEED™ PAYBACK

3 сезон

9 сезон

Бесстыжие 9 сезон

Все сериалы

все сериалы на PB.wtf

RePack

FAR CRY 5
Ребята, катастрофически не хватает 1900р. для оплаты серверов за АВГУСТ (всвязи с блокировками трафик упал в 3 раза), 1-2р., выручайте.
  

Молодой Франкенштейн / Young Frankenstein (Мэл Брукс) [1974 г, комедия, BDRip] 2xMVO pb.wtf

Молодой Франкенштейн через торрент pb.wtf

Размер: 1.45 GB | Добавлен: 1 год 11 мес. назад | Торрент скачан:24 раза
Скачать  

13-11-2017 17:25 Молодой Франкенштейн Скачать торрент  

Молодой Франкенштейн / Young Frankenstein
Год выпуска: 1974
Страна: США
Жанр: комедия
Продолжительность: 01:45:41
Перевод: Профессиональный (многоголосый)

Режиссер: Мэл Брукс

rating

В ролях: Джин Уайлдер, Питер Бойл, Марти Фелдман, Мэдлин Кан, Клорис Личмен, Тери Гарр, Кеннет Марс, Ричард Хейдн, Лиам Данн, Дэнни Голдман, Оскар Береги мл., Артур Мэлет, Энн Бисли, Монте Лэндис, Расти Блитц, Джон Мэдисон, Джонни Дэннис, Рик Норман, Рольф Седан, Теренс Пушман, Рэндольф Доббс, Норберт Шиллер, Пэт О’Хара, Майкл Фокс, Лидия Кристен, Ричард А. Рот, Джин Хэкмен, Леон Эскин, Джон Кэрредин

Описание: Молодой доктор Фредерик Франкентшейн, внук Виктора Франкенштейна, невероятно стыдящийся своего близкого родства со знаменитым бароном, отправляется в Трансильванию, чтобы вступить во владение замком, оставленным дедом ему в наследство. Долгие годы уверенный, что работа его дедушки — полнейшая ерунда, Фредерик находит в замке книгу, в которой сумасшедший доктор описывал свои эксперименты со знаменитым монстром. Внимательно изучив их, молодой человек резко меняет свое мнение…

Качество: BDRip (Young.Frankenstein.1974.BD.Remux.1080p.h264.2xRus.Eng.Sub)
Формат: AVI
Видео: XviD, 1375 Kбит/с, 704x384, 23.976 кадр/с
Аудио#1: АС3, 6 ch, 384 Кбит/с | Профессиональный многоголосый (Двадцатый Век Фокс СНГ)
Аудио#2: АС3, 2 ch, 192 Кбит/с | Профессиональный многоголосый #2
Релиз от: Koenig
скриншот   скриншот   скриншот   скриншот   скриншот   скриншот  

Общее
Полное имя : Young.Frankenstein.1974.BDRip.avi
Формат : AVI
Формат/Информация : Audio Video Interleave
Размер файла : 1,45 Гбайт
Продолжительность : 1 ч. 45 м.
Общий поток : 1965 Кбит/сек
Программа кодирования : VirtualDubMod 1.5.10.2 (build 2540/release)
Библиотека кодирования : VirtualDubMod build 2540/release

Видео
Идентификатор : 0
Формат : MPEG-4 Visual
Профиль формата : Advanced Simple@L5
Параметр BVOP формата : 1
Параметр QPel формата : Нет
Параметр GMC формата : Без точки перехода
Параметр матрицы формата : Выборочная
Идентификатор кодека : XVID
Идентификатор кодека/Подсказка : XviD
Продолжительность : 1 ч. 45 м.
Битрейт : 1375 Кбит/сек
Ширина : 704 пикселя
Высота : 384 пикселя
Соотношение сторон : 1,85:1
Частота кадров : 23,976 (24000/1001) кадра/сек
Цветовое пространство : YUV
Субдискретизация насыщенности : 4:2:0
Битовая глубина : 8 бит
Тип развёртки : Прогрессивная
Метод сжатия : С потерями
Бит/(Пиксели*Кадры) : 0.212
Размер потока : 1,01 Гбайт (70%)
Библиотека кодирования : XviD 65

Аудио #1
Идентификатор : 1
Формат : AC-3
Формат/Информация : Audio Coding 3
Параметр Endianness формата : Big
Идентификатор кодека : 2000
Продолжительность : 1 ч. 45 м.
Вид битрейта : Постоянный
Битрейт : 384 Кбит/сек
Каналы : 6 каналов
Расположение каналов : Front: L C R, Side: L R, LFE
Частота : 48,0 КГц
Частота кадров : 31,250 кадров/сек (1536 spf)
Битовая глубина : 16 бит
Метод сжатия : С потерями
Размер потока : 290 Мбайт (20%)
Выравнивание : Разделение по промежуткам
Продолжительность промежутка : 42 мс. (1,00 видеокадр)
Время предзагрузки промежутка : 500 мс.
ServiceKind/String : Complete Main

Аудио #2
Идентификатор : 2
Формат : AC-3
Формат/Информация : Audio Coding 3
Параметр Endianness формата : Big
Идентификатор кодека : 2000
Продолжительность : 1 ч. 45 м.
Вид битрейта : Постоянный
Битрейт : 192 Кбит/сек
Каналы : 2 канала
Расположение каналов : Front: L R
Частота : 48,0 КГц
Частота кадров : 31,250 кадров/сек (1536 spf)
Битовая глубина : 16 бит
Метод сжатия : С потерями
Размер потока : 145 Мбайт (10%)
Выравнивание : Разделение по промежуткам
Продолжительность промежутка : 42 мс. (1,00 видеокадр)
Время предзагрузки промежутка : 500 мс.
ServiceKind/String : Complete Main

pb.wtf



Скачать Молодой Франкенштейн через торрент http://pic1.kartinco.top/images/11/7qe3l.jpg Скачать фильм Молодой Франкенштейн через торрент бесплантно в хорошем качестве Описание: Молодой доктор Фредерик Франкентшейн, внук Виктора Франкенштейна, невероятно стыдящийся своего близкого родства со знаменитым ... 10 10 2
Торрент: Зарегистрирован [2017-11-13 17:25] · скачан: 24 раз
Статус: √ проверено
Размер: 1.45 GB
Как cкачать? Как скачать Молодой Франкенштейн через торрент | qTorrent


>> Регистрируемся здесь <<






Отзывы и комментарии о схеме читаем и пишем здесь: ---> Отзывы и комментарии о схеме

Новые благодарочки в телеграм довольных пользователей:
скриншот   скриншот   скриншот   скриншот   скриншот
    Дорогой пользователь! Огромная просьба, поблагодарите релизера, оцените раздачу и оставьте свои комментарий, если Вы скачали Молодой Франкенштейн через торрент бесплатно! Внесите свою лепту в развитие PiratBit!
    Комментировать посты могут только пользователи прошедшие не сложную регистрацию
    Показать сообщения:    

    Молодой Франкенштейн через торрент
    Скачать бесплатно Молодой Франкенштейн
    Молодой Франкенштейн скачать торрент
    Молодой Франкенштейн смотреть онлайн
    Cкачать фильм Молодой Франкенштейн бесплатно
    Молодой Франкенштейн скачать торрент в хорошем качестве
    Молодой Франкенштейн смотреть онлайн бесплатно в хорошем качестве


    Вы не можете начинать темы
    Вы не можете отвечать на сообщения
    Вы не можете редактировать свои сообщения
    Вы не можете удалять свои сообщения
    Вы не можете голосовать в опросах
    Вы не можете прикреплять файлы к сообщениям
    Вы можете скачивать файлы