Всегда рабочее зеркало просто перед .vidak.icu напиши любое слово или цифру, Пример http://23u.vidak.icu

>

7.4

iTunes

7.4

2 сезон

9.4

1 сезон

1

7.4

2 сезон

7.2

iTunes

6.0

MVO

13

6.1

iTunes

8.3

Пиратка

30

ULTIMATE

pack

9.9

Лицензия

ВАЖНО

ИГРА 18+

pack

7.3

RePack

MK11

7.7

RePack

jed

7.8

RePack

fifa19

8.5

RePack

RDR2

RePack

NEED FOR SPEED™ PAYBACK

1 сезон

9 сезон

Бесстыжие 9 сезон

Все сериалы

все сериалы на PB.wtf

RePack

FAR CRY 5

Anonymous, доброй ночи, мы катастрофически не успеваем собрать деньги на оплату серверов, помогите нам пожалуйста 5,10,15р., для нас важна любая помощь . В качестве благодарности мы отключим Вам всю рекламу на сайте (укажите свой ник в строку Ваше имя)!

×
  
Magnet ссылка

Хэллоуин 5 / Halloween 5: The Revenge of Michael Myers (Доминик Отенен-Жирар) [1989 г., Ужасы, Триллер, BDRip 720p, MVO, 2х AVO, VO] pb.wtf

Хэллоуин 5 через торрент pb.wtf

Размер: 4.55 GB | Добавлен: 5 мес. 18 д. назад | Торрент скачан:1 раз
Смотреть онлайн Хэллоуин 5 | Скачать    Ребята, помогите собрать деньги на оплату серверов!!!

13-11-2017 18:24 Хэллоуин 5 Скачать торрент  

Хэллоуин 5 / Halloween 5: The Revenge of Michael MyersГод выпуска: 1989
Страна: США
Жанр: Ужасы, Триллер
Продолжительность: 01:37:04
Перевод: Профессиональный (многоголосый закадровый) СВ-Дубль, Одноголосый закадровый, 3 вида (Вартан Дохалов, Андрей Дольский, диктор D.F.V.)
Субтитры: отсутствуют

Режиссер: Доминик Отенен-Жирар

Премьера в мире: 13 октября 1989

rating

В ролях: Дональд Плезенс, Даниэль Харрис, Элли Корнелл, Бо Старр, Джеффри Лэндмэн, Тамара Глинн, Джонатан Чейпин, Мэттью Уолкер, Венди Каплан, Бетти Карвальо

Описание: Прошёл год. А это означает, что вновь близится Хэллоуин и снова людям предстоит одевать страшные маски. Джейми, как мы помним, определили в хэддонфилдскую психушку, где она имела астральную связь с маньяком и видела все его действия, а также могла предсказать опасность для людей, находящихся рядом с ним. На дворе Хэллоуин, и Джейми стала проявлять признаки беспокойства, то и дело попадая в состояние трясучки. Девочка права - Майкл вернулся вновь. Вернулся, чтобы снова устроить кровавую резню...

Качество: BDRip 720p
Формат: MKV
Видео кодек: H.264
Аудио кодек: AC3
Видео: AVC/H.264, 1280х694, ~5950 kbps
Аудио#1: Русский: AC3, 48 kHz, 2 ch, 192 kbps - Многоголосый закадровый (СВ-Дубль)
Аудио#2: Русский: AC3, 48 kHz, 2 ch, 192 kbps - Авторский (одноголосый закадровый) (Вартан Дохалов)
Аудио#3: Русский: AC3, 48 kHz, 2 ch, 192 kbps - Авторский (одноголосый закадровый)(Андрей Дольский)
Аудио#4: Русский: AC3, 48 kHz, 2 ch, 192 kbps - Одноголосый закадровый (диктор D.F.V.)
Релиз от: winchester00100010
x264 [info]: profile Progressive High, level 4.1, 4:2:0, 8-bit
x264 [info]: frame I:904 Avg QP:15.18 size:108583 PSNR Mean Y:48.36 U:51.34 V:52.27 Avg:49.22 Global:48.57
x264 [info]: frame P:30377 Avg QP:17.16 size: 55567 PSNR Mean Y:46.10 U:50.01 V:51.03 Avg:47.12 Global:46.42
x264 [info]: frame B:108351 Avg QP:19.02 size: 23466 PSNR Mean Y:44.76 U:49.26 V:50.46 Avg:45.86 Global:45.15

Общее
Уникальный идентификатор : 250057926555126649323883351180230933576 (0xBC1F67A4CCA9AACFA9BC6BB32A623C48)
Полное имя : D:\Мои раздачи и рипы\Хэллоуин Коллекция\Halloween.5.The.Revenge.Of.Michael.Myers.1989.BDRip.720p.mkv
Формат : Matroska
Версия формата : Version 2
Размер файла : 4,55 Гбайт
Продолжительность : 1 ч. 37 м.
Общий поток : 6 717 Кбит/сек
Дата кодирования : UTC 2021-08-01 14:03:18
Программа кодирования : mkvmerge v5.8.0 ('No Sleep / Pillow') built on Sep 2 2012 15:37:04
Библиотека кодирования : libebml v1.2.3 + libmatroska v1.3.0

Видео
Идентификатор : 1
Формат : AVC
Формат/Информация : Advanced Video Codec
Профиль формата : High@L4.1
Настройки формата : CABAC / 9 Ref Frames
Параметр CABAC формата : Да
Параметр RefFrames формата : 9 кадров
Идентификатор кодека : V_MPEG4/ISO/AVC
Продолжительность : 1 ч. 37 м.
Битрейт : 5 950 Кбит/сек
Ширина : 1 280 пикселей
Высота : 694 пикселя
Соотношение сторон : 1,85:1
Режим частоты кадров : Постоянный
Частота кадров : 23,976 (24000/1001) кадра/сек
Цветовое пространство : YUV
Субдискретизация насыщенности : 4:2:0
Битовая глубина : 8 бит
Тип развёртки : Прогрессивная
Бит/(Пиксели*Кадры) : 0.279
Размер потока : 3,94 Гбайт (87%)
Библиотека кодирования : x264 core 157 r2969 d4099dd
Настройки программы : cabac=1 / ref=9 / deblock=1:-3:-3 / analyse=0x3:0x113 / me=umh / subme=9 / psy=1 / psy_rd=1.00:0.15 / mixed_ref=1 / me_range=32 / chroma_me=1 / trellis=2 / 8x8dct=1 / cqm=0 / deadzone=21,11 / fast_pskip=0 / chroma_qp_offset=-3 / threads=12 / lookahead_threads=2 / sliced_threads=0 / nr=0 / decimate=0 / interlaced=0 / bluray_compat=0 / constrained_intra=0 / bframes=6 / b_pyramid=2 / b_adapt=2 / b_bias=0 / direct=3 / weightb=1 / open_gop=0 / weightp=2 / keyint=240 / keyint_min=23 / scenecut=40 / intra_refresh=0 / rc_lookahead=40 / rc=2pass / mbtree=0 / bitrate=5950 / ratetol=1.0 / qcomp=0.60 / qpmin=0 / qpmax=69 / qpstep=4 / cplxblur=20.0 / qblur=0.5 / vbv_maxrate=50000 / vbv_bufsize=62500 / nal_hrd=none / filler=0 / ip_ratio=1.40 / pb_ratio=1.30 / aq=1:0.80
Язык : English
Default : Да
Forced : Нет
Duration_Source : General_Duration

Аудио #1
Идентификатор : 2
Формат : AC-3
Формат/Информация : Audio Coding 3
Коммерческое название : Dolby Digital
Идентификатор кодека : A_AC3
Продолжительность : 1 ч. 37 м.
Вид битрейта : Постоянный
Битрейт : 192 Кбит/сек
Каналы : 2 канала
Channel layout : L R
Частота : 48,0 КГц
Частота кадров : 31,250 кадров/сек (1536 SPF)
Метод сжатия : С потерями
Размер потока : 133 Мбайт (3%)
Заголовок : Многоголосый закадровый (СВ-Дубль)
Язык : Russian
Service kind : Complete Main
Default : Да
Forced : Нет
Duration_Source : General_Duration

Аудио #2
Идентификатор : 3
Формат : AC-3
Формат/Информация : Audio Coding 3
Коммерческое название : Dolby Digital
Идентификатор кодека : A_AC3
Продолжительность : 1 ч. 37 м.
Вид битрейта : Постоянный
Битрейт : 192 Кбит/сек
Каналы : 2 канала
Channel layout : L R
Частота : 48,0 КГц
Частота кадров : 31,250 кадров/сек (1536 SPF)
Метод сжатия : С потерями
Размер потока : 133 Мбайт (3%)
Заголовок : Авторский одноголосый (Вартан Дохалов)
Язык : Russian
Service kind : Complete Main
Default : Нет
Forced : Нет
Duration_Source : General_Duration

Аудио #3
Идентификатор : 4
Формат : AC-3
Формат/Информация : Audio Coding 3
Коммерческое название : Dolby Digital
Идентификатор кодека : A_AC3
Продолжительность : 1 ч. 37 м.
Вид битрейта : Постоянный
Битрейт : 192 Кбит/сек
Каналы : 2 канала
Channel layout : L R
Частота : 48,0 КГц
Частота кадров : 31,250 кадров/сек (1536 SPF)
Метод сжатия : С потерями
Размер потока : 133 Мбайт (3%)
Заголовок : Авторский одноголосый (Андрей Дольский)
Язык : Russian
Service kind : Complete Main
Default : Нет
Forced : Нет
Duration_Source : General_Duration

Аудио #4
Идентификатор : 5
Формат : AC-3
Формат/Информация : Audio Coding 3
Коммерческое название : Dolby Digital
Идентификатор кодека : A_AC3
Продолжительность : 1 ч. 37 м.
Вид битрейта : Постоянный
Битрейт : 192 Кбит/сек
Каналы : 2 канала
Channel layout : L R
Частота : 48,0 КГц
Частота кадров : 31,250 кадров/сек (1536 SPF)
Метод сжатия : С потерями
Размер потока : 133 Мбайт (3%)
Заголовок : Одноголосый закадровый (диктор D.F.V.)
Язык : Russian
Service kind : Complete Main
Default : Нет
Forced : Нет
Duration_Source : General_Duration

pb.wtf



Скачать Хэллоуин 5 через торрент https://pic1.kartinco.top/images/11/hgpmj.jpg Скачать, смотреть онлайн Хэллоуин 5 бесплантно в хорошем качестве Описание: Прошёл год. А это означает, что вновь близится Хэллоуин и снова людям предстоит одевать страшные маски. Джейми, как мы помним, ... 8.3 10 4
Торрент: Зарегистрирован [2021-08-01 15:02] · скачан: 1 раз
Статус: √ проверено
Размер: 4.55 GB
Как cкачать? Как скачать Хэллоуин 5 через торрент | UTorrent

% Раздел Тема Автор DL S | L
Фильмы до 2000 г. [ 2.89 GB ] Хэллоуин 5 / Halloween 5: The Revenge of Michael Myers [1989 BDRip-AVC MVO AVO] winchester00100010 Скачать
1 | 0
Фильмы с авторской озвучкой [ 7.75 GB ] Хэллоуин 5 / Halloween 5: The Revenge of Michael Myers [1989 BDRip 1080p Авторский ] winchester00100010 Скачать
1 | 0


Последний раз редактировалось: winchester00100010 (2021-08-01 15:02), всего редактировалось 5 раз(а)

28-11-2019 20:33  

Отключить всю рекламу на сайте

13-11-2017 18:57 Хэллоуин 5 Скачать торрент  

Топик был перенесен из форума Фильмы [HD 720p, 1080p] (Хороший звук DUB, MVO) в форум Фильмы с авторской озвучкой


-Lexx-pb.wtf



10-12-2017 19:56 Хэллоуин 5 Скачать торрент  

Перезалил торрент файлик, так как человек писал вконтакте мне, что он не может скачать и не качается раздача, перекачайте торрентpb.wtf



18-03-2018 15:12 Хэллоуин 5 Скачать торрент  

Всем приятного просмотра)pb.wtf



01-08-2021 15:08 Хэллоуин 5 Скачать торрент  

Торрент файл обновлен, перезалил раздачу так как предыдущая загнулась, перекачайте торрентpb.wtf



    Дорогой пользователь! Огромная просьба, поблагодарите релизера, оцените раздачу и оставьте свои комментарий, если Вы скачали Хэллоуин 5 через торрент бесплатно!
    Комментировать посты могут только пользователи прошедшие не сложную регистрацию
    Показать сообщения:    

    Хэллоуин 5 через торрент
    Скачать бесплатно Хэллоуин 5
    Хэллоуин 5 скачать торрент
    Хэллоуин 5 смотреть онлайн
    Cкачать фильм Хэллоуин 5 бесплатно
    Хэллоуин 5 скачать торрент в хорошем качестве
    Хэллоуин 5 смотреть онлайн бесплатно в хорошем качестве


    Вы не можете начинать темы
    Вы не можете отвечать на сообщения
    Вы не можете редактировать свои сообщения
    Вы не можете удалять свои сообщения
    Вы не можете голосовать в опросах
    Вы не можете прикреплять файлы к сообщениям
    Вы можете скачивать файлы