>

5.6

iTunes

6.1

MVO

5.7

MVO

1

7.4

1 сезон

6.8

iTunes

7.2

1 сезон

13

6.7

1 сезон

8.3

RePack

30

Deluxe

pack

9.9

Лицензия

ВАЖНО

ИГРА 18+

pack

7.3

RePack

MK11

7.7

RePack

jed

7.8

RePack

fifa19

8.5

RePack

RDR2

RePack

NEED FOR SPEED™ PAYBACK

4 сезон

9 сезон

Бесстыжие 9 сезон

Все сериалы

все сериалы на PB.wtf

RePack

FAR CRY 5

Anonymous, доброй ночи, мы катастрофически не успеваем собрать деньги на оплату серверов, помогите нам пожалуйста 5,10,15р., для нас важна любая помощь . В качестве благодарности мы отключим Вам всю рекламу на сайте (укажите свой ник в строку Ваше имя)!

×
  
Magnet ссылка

Хэллоуин 6: Проклятие Майкла Майерса / Halloween: The Curse of Michael Myers (Джо Чаппелль) [1995 г, Ужасы, Триллер, BDRip 720p, Профессиональный (Двухголосый)] pb.wtf

Хэллоуин 6: Проклятие Майкла Майерса через торрент pb.wtf

Размер: 5.18 GB | Добавлен: 1 мес. 26 д. назад | Торрент скачан:7 раз
Смотреть онлайн Хэллоуин 6: Проклятие Майкла Майерса | Скачать    Ребята, помогите собрать деньги на оплату серверов!!!

13-11-2017 18:36 Хэллоуин 6: Проклятие Майкла Майерса Скачать торрент  

Хэллоуин 6: Проклятие Майкла Майерса /
Halloween: The Curse of Michael Myers
Год выпуска: 1995
Страна: США
Жанр: Ужасы, Триллер
Продолжительность: 01:28:11
Перевод#1: Профессиональный (Двухголосый закадровый) НТВ+
Перевод#2: Профессиональный (Двухголосый закадровый) Премьер
Субтитры: отсутствуют

Режиссер: Джо Чаппелль

Премьера в мире: 29 сентября 1995

rating

В ролях: Дональд Плезенс, Пол Радд, Марианн Хэйгэн, Митч Райан, Ким Дарби, Брэдфорд Инглиш, Кейт Богарт, Мэрайя О’Брайэн, Лео Гетер, Дж.С. Брэнди

Описание: Продолжение известного триллера о безжалостном маньяке Майкле Майерсе, который в очередной раз появляется в маленьком американском городке Хэддонфилд накануне праздника Дня Всех Святых.

Качество: BDRip 720p
Формат: MKV
Видео кодек: H.264
Аудио кодек: AC3
Видео: AVC/H.264, 1280х694 (1,85:1), ~8035 kbps, 0.377 bit/pixel
Аудио#1: Русский: AC3, 2 ch, 192 kbps - Профессиональный (Двухголосый закадровый) НТВ+
Аудио#2: Русский: AC3, 2 ch, 192 kbps - Профессиональный (Двухголосый закадровый) Премьер
Релиз от: winchester00100010
x264 [info]: profile Progressive High, level 4.1, 4:2:0, 8-bit
x264 [info]: frame I:921 Avg QP:16.58 size:115012 PSNR Mean Y:46.87 U:51.21 V:52.75 Avg:47.84 Global:47.41
x264 [info]: frame P:26565 Avg QP:18.58 size: 66754 PSNR Mean Y:44.61 U:50.64 V:52.43 Avg:45.71 Global:45.10
x264 [info]: frame B:99507 Avg QP:20.96 size: 34446 PSNR Mean Y:42.73 U:49.21 V:51.43 Avg:43.92 Global:43.41

Общее
Уникальный идентификатор : 185989669831104589236488456892395416197 (0x8BEC4EB4E024772598FC826DEDA1EA85)
Полное имя : D:\Мои раздачи и рипы\Хэллоуин Коллекция\Halloween.6.The.Curse.of.Michael.Myers.1995.BDRip.720p.mkv
Формат : Matroska
Версия формата : Version 2
Размер файла : 5,18 Гбайт
Продолжительность : 1 ч. 28 м.
Общий поток : 8 410 Кбит/сек
Дата кодирования : UTC 2021-07-29 15:47:21
Программа кодирования : mkvmerge v5.8.0 ('No Sleep / Pillow') built on Sep 2 2012 15:37:04
Библиотека кодирования : libebml v1.2.3 + libmatroska v1.3.0

Видео
Идентификатор : 1
Формат : AVC
Формат/Информация : Advanced Video Codec
Профиль формата : High@L4.1
Настройки формата : CABAC / 9 Ref Frames
Параметр CABAC формата : Да
Параметр RefFrames формата : 9 кадров
Идентификатор кодека : V_MPEG4/ISO/AVC
Продолжительность : 1 ч. 28 м.
Битрейт : 8 035 Кбит/сек
Ширина : 1 280 пикселей
Высота : 694 пикселя
Соотношение сторон : 1,85:1
Режим частоты кадров : Постоянный
Частота кадров : 24,000 кадра/сек
Цветовое пространство : YUV
Субдискретизация насыщенности : 4:2:0
Битовая глубина : 8 бит
Тип развёртки : Прогрессивная
Бит/(Пиксели*Кадры) : 0.377
Размер потока : 4,84 Гбайт (93%)
Библиотека кодирования : x264 core 157 r2969 d4099dd
Настройки программы : cabac=1 / ref=9 / deblock=1:-3:-3 / analyse=0x3:0x113 / me=umh / subme=9 / psy=1 / psy_rd=1.00:0.15 / mixed_ref=1 / me_range=24 / chroma_me=1 / trellis=2 / 8x8dct=1 / cqm=0 / deadzone=21,11 / fast_pskip=0 / chroma_qp_offset=-3 / threads=12 / lookahead_threads=2 / sliced_threads=0 / nr=0 / decimate=0 / interlaced=0 / bluray_compat=0 / constrained_intra=0 / bframes=6 / b_pyramid=2 / b_adapt=2 / b_bias=0 / direct=3 / weightb=1 / open_gop=0 / weightp=2 / keyint=240 / keyint_min=24 / scenecut=40 / intra_refresh=0 / rc_lookahead=40 / rc=2pass / mbtree=0 / bitrate=8035 / ratetol=1.0 / qcomp=0.60 / qpmin=0 / qpmax=69 / qpstep=4 / cplxblur=20.0 / qblur=0.5 / vbv_maxrate=50000 / vbv_bufsize=62500 / nal_hrd=none / filler=0 / ip_ratio=1.40 / pb_ratio=1.30 / aq=1:0.80
Язык : English
Default : Да
Forced : Нет
Duration_Source : General_Duration

Аудио #1
Идентификатор : 2
Формат : AC-3
Формат/Информация : Audio Coding 3
Коммерческое название : Dolby Digital
Идентификатор кодека : A_AC3
Продолжительность : 1 ч. 28 м.
Вид битрейта : Постоянный
Битрейт : 192 Кбит/сек
Каналы : 2 канала
Channel layout : L R
Частота : 48,0 КГц
Частота кадров : 31,250 кадров/сек (1536 SPF)
Метод сжатия : С потерями
Размер потока : 121 Мбайт (2%)
Заголовок : Двухголосый закадровый (НТВ+)
Язык : Russian
Service kind : Complete Main
Default : Да
Forced : Нет
Duration_Source : General_Duration

Аудио #2
Идентификатор : 3
Формат : AC-3
Формат/Информация : Audio Coding 3
Коммерческое название : Dolby Digital
Идентификатор кодека : A_AC3
Продолжительность : 1 ч. 28 м.
Вид битрейта : Постоянный
Битрейт : 192 Кбит/сек
Каналы : 2 канала
Channel layout : L R
Частота : 48,0 КГц
Частота кадров : 31,250 кадров/сек (1536 SPF)
Метод сжатия : С потерями
Размер потока : 121 Мбайт (2%)
Заголовок : Двухголосый закадровый (Премьер)
Язык : Russian
Service kind : Complete Main
Default : Нет
Forced : Нет
Duration_Source : General_Duration

pb.wtf



Скачать Хэллоуин 6: Проклятие Майкла Майерса через торрент https://b.radikal.ru/b38/1803/20/fd612182f39c.jpg Скачать, смотреть онлайн Хэллоуин 6: Проклятие Майкла Майерса бесплантно в хорошем качестве Описание: Продолжение известного триллера о безжалостном маньяке Майкле Майерсе, который в очередной раз появляется в маленьком ... 8.2 10 5
Info! Золотая раздача, скачанное не засчитывается.
Торрент: Зарегистрирован [2021-07-29 16:27] · скачан: 7 раз
Статус: √ проверено
Размер: 5.18 GB
Как cкачать? Как скачать Хэллоуин 6: Проклятие Майкла Майерса через торрент | UTorrent

% Раздел Тема Автор DL S | L
Фильмы с авторской озвучкой [ 6.46 GB ] Хэллоуин 6: Проклятие Майкла Майерса / Halloween: The Curse of Michael Myers [1995 г BDRip 1080p Авторский одноголосый] winchester00100010 Скачать
1 | 0
Фильмы [HD 720p, 1080p] (Хороший звук DUB, MVO) [ 10.75 GB ] Хэллоуин 6: Проклятие Майкла Майерса / Halloween: The Curse of Michael Myers [1995 г BDRip 1080p ] winchester00100010 Скачать
1 | 0
Фильмы до 2000 г. [ 2.39 GB ] Хэллоуин 6: Проклятие Майкла Майерса / Halloween: The Curse of Michael Myers [1995 BDRip-AVC ] winchester00100010 Скачать
1 | 0


Последний раз редактировалось: winchester00100010 (2021-07-29 16:27), всего редактировалось 2 раз(а)

28-11-2019 20:33  

Отключить всю рекламу на сайте

    Дорогой пользователь! Огромная просьба, поблагодарите релизера, оцените раздачу и оставьте свои комментарий, если Вы скачали Хэллоуин 6: Проклятие Майкла Майерса через торрент бесплатно!
    Комментировать посты могут только пользователи прошедшие не сложную регистрацию
    Показать сообщения:    

    Хэллоуин 6: Проклятие Майкла Майерса через торрент
    Скачать бесплатно Хэллоуин 6: Проклятие Майкла Майерса
    Хэллоуин 6: Проклятие Майкла Майерса скачать торрент
    Хэллоуин 6: Проклятие Майкла Майерса смотреть онлайн
    Cкачать фильм Хэллоуин 6: Проклятие Майкла Майерса бесплатно
    Хэллоуин 6: Проклятие Майкла Майерса скачать торрент в хорошем качестве
    Хэллоуин 6: Проклятие Майкла Майерса смотреть онлайн бесплатно в хорошем качестве


    Вы не можете начинать темы
    Вы не можете отвечать на сообщения
    Вы не можете редактировать свои сообщения
    Вы не можете удалять свои сообщения
    Вы не можете голосовать в опросах
    Вы не можете прикреплять файлы к сообщениям
    Вы можете скачивать файлы