2 сезон

iTunes

MVO

1

2 сезон

iTunes

iTunes

1 сезон

RePack

30

Новинка

ВАЖНО

ИГРА 18+

pack

RePack

MK11
pack

Легкие деньги

RePack

jed

RePack

fifa19

RePack

RDR2

RePack

NEED FOR SPEED™ PAYBACK

4 сезон

9 сезон

Бесстыжие 9 сезон

Все сериалы

все сериалы на PB.wtf

RePack

FAR CRY 5

Anonymous, добрый вечер, мы не успеваем собрать деньги на оплату серверов за декабрь и январь, помогите нам пожалуйста в это трудное время. В качестве благодарности мы отключим Вам всю рекламу на сайте (укажите свой ник в строку Ваше имя)!

×
  
Magnet ссылка

Перестрелка / Free Fire (Бен Уитли) [2016, Боевик, триллер, BDRip-AVC] DUB [Лицензия] pb.wtf

Перестрелка через торрент pb.wtf

Размер: 1.79 GB | Добавлен: 3 года 2 мес. назад | Торрент скачан:168 раз
Скачать  

14-11-2017 04:42 Перестрелка Скачать торрент  

Перестрелка / Free Fire
Год выпуска: 2016
Страна: Великобритания
Жанр: Боевик, триллер
Продолжительность: 01:30:17
Перевод: Дубляж Лицензия
Субтитры: английские
Реклама: Отсутствует

Режиссер: Бен Уитли

rating

В ролях:

Энцо Чиленти, Сэм Райли, Майкл Смайли, Бри Ларсон, Киллиан Мёрфи, Арми Хаммер, Шарлто Копли, Бабу Сизей, Ноа Тейлор, Джек Рейнор

Описание:

Когда подпольная сделка по продаже оружия феерически летит под откос, целый склад превращается в масштабное поле битвы. Слова закончились, и заговорили стволы. Приз в игре на выживание — кейс с большой суммой денег, но унести его не так просто. Здесь вооружены все, каждый сам за себя, а хаос правит бал.

Качество: BDRip-AVC
Формат: MKV
Видео кодек: H.264
Аудио кодек: AC3

Видео: 1024x428 (2.40:1), 23.976 fps, x264 ~1930 kbps avg, 0.178 bit/pixel
Аудио#1: 48 kHz, AC3 Dolby Digital, 3/2 (L,C,R,l,r) + LFE ch, ~448.00 kbps avg | RUS (Лицензия)
Аудио#2: 48 kHz, AC3 Dolby Digital, 3/2 (L,C,R,l,r) + LFE ch, ~448.00 kbps avg | ENG
скриншот   скриншот   скриншот   скриншот   скриншот   скриншот  

Общее
Уникальный идентификатор : 245919631168524846501707147776381400013 (0xB90265EDAEFB04FDBEE5329BC65FB3CD)
Полное имя : D:ЗагрузкиFree.Fire.2016.BDRip(AVC).OlLanDGroup.mkv
Формат : Matroska
Версия формата : Version 2
Размер файла : 1,79 Гбайт
Продолжительность : 1 ч. 30 м.
Общий поток : 2828 Кбит/сек
Название фильма : Free.Fire.2016 #TorpedoUK#
Дата кодирования : UTC 2017-11-13 17:39:48
Программа кодирования : mkvmerge v5.6.0 ('Kenya Kane') built on May 27 2012 16:44:04
Библиотека кодирования : libebml v1.2.3 + libmatroska v1.3.0

Видео
Идентификатор : 1
Формат : AVC
Формат/Информация : Advanced Video Codec
Профиль формата : High@L4.1
Параметр CABAC формата : Да
Параметр ReFrames формата : 10 кадров
Идентификатор кодека : V_MPEG4/ISO/AVC
Продолжительность : 1 ч. 30 м.
Битрейт : 1930 Кбит/сек
Ширина : 1024 пикселя
Высота : 428 пикселей
Соотношение сторон : 2,40:1
Режим частоты кадров : Постоянный
Частота кадров : 23,976 (24000/1001) кадра/сек
Цветовое пространство : YUV
Субдискретизация насыщенности : 4:2:0
Битовая глубина : 8 бит
Тип развёртки : Прогрессивная
Бит/(Пиксели*Кадры) : 0.184
Размер потока : 1,19 Гбайт (66%)
Библиотека кодирования : x264 core 146 r2538 121396c
Настройки программы : cabac=1 / ref=10 / deblock=1:-3:-3 / analyse=0x3:0x133 / me=umh / subme=11 / psy=1 / psy_rd=1.00:0.07 / mixed_ref=1 / me_range=48 / chroma_me=1 / trellis=2 / 8x8dct=1 / cqm=0 / deadzone=21,11 / fast_pskip=0 / chroma_qp_offset=-3 / threads=6 / lookahead_threads=1 / sliced_threads=0 / nr=0 / decimate=0 / interlaced=0 / bluray_compat=0 / constrained_intra=0 / bframes=10 / b_pyramid=2 / b_adapt=2 / b_bias=0 / direct=3 / weightb=1 / open_gop=0 / weightp=2 / keyint=240 / keyint_min=23 / scenecut=40 / intra_refresh=0 / rc_lookahead=40 / rc=2pass / mbtree=0 / bitrate=1930 / ratetol=1.0 / qcomp=0.60 / qpmin=0 / qpmax=69 / qpstep=4 / cplxblur=20.0 / qblur=0.5 / vbv_maxrate=50000 / vbv_bufsize=62500 / nal_hrd=none / filler=0 / ip_ratio=1.40 / pb_ratio=1.30 / aq=1:1.00
Язык : English
Default : Да
Forced : Нет

Аудио #1
Идентификатор : 2
Формат : AC-3
Формат/Информация : Audio Coding 3
Расширение режима : CM (complete main)
Параметр Endianness формата : Big
Идентификатор кодека : A_AC3
Продолжительность : 1 ч. 30 м.
Вид битрейта : Постоянный
Битрейт : 448 Кбит/сек
Каналы : 6 каналов
Расположение каналов : Front: L C R, Side: L R, LFE
Частота : 48,0 КГц
Частота кадров : 31,250 кадров/сек (1536 spf)
Метод сжатия : С потерями
Размер потока : 290 Мбайт (16%)
Заголовок : Лицензия
Язык : Russian
Default : Да
Forced : Нет

Аудио #2
Идентификатор : 3
Формат : AC-3
Формат/Информация : Audio Coding 3
Расширение режима : CM (complete main)
Параметр Endianness формата : Big
Идентификатор кодека : A_AC3
Продолжительность : 1 ч. 30 м.
Вид битрейта : Постоянный
Битрейт : 448 Кбит/сек
Каналы : 6 каналов
Расположение каналов : Front: L C R, Side: L R, LFE
Частота : 48,0 КГц
Частота кадров : 31,250 кадров/сек (1536 spf)
Метод сжатия : С потерями
Размер потока : 290 Мбайт (16%)
Заголовок : Original
Язык : English
Default : Нет
Forced : Нет

Текст
Идентификатор : 4
Формат : UTF-8
Идентификатор кодека : S_TEXT/UTF8
Идентификатор кодека/Информация : UTF-8 Plain Text
Заголовок : SDH (Colored)
Язык : English
Default : Нет
Forced : Нет

Меню
00:00:00.000 : en:Chapter 1
00:07:31.368 : en:Chapter 2
00:09:32.655 : en:Chapter 3
00:15:12.036 : en:Chapter 4
00:20:35.693 : en:Chapter 5
00:27:40.867 : en:Chapter 6
00:32:48.300 : en:Chapter 7
00:37:54.022 : en:Chapter 8
00:43:09.795 : en:Chapter 9
00:48:48.008 : en:Chapter 10
00:54:27.639 : en:Chapter 11
00:59:18.096 : en:Chapter 12
01:05:36.432 : en:Chapter 13
01:09:08.102 : en:Chapter 14
01:15:16.887 : en:Chapter 15
01:22:35.117 : en:Chapter 16

pb.wtf



Скачать Перестрелка через торрент http://lostpix.com/img/2017-07/03/cmj2epulx9rehnkm78taf8m6l.jpg Скачать фильм Перестрелка через торрент бесплантно в хорошем качестве Описание: Когда подпольная сделка по продаже оружия феерически летит под откос, целый склад превращается в масштабное поле битвы. Слова ... 10 10 5
Торрент: Зарегистрирован [2017-11-14 04:42] · скачан: 168 раз
Статус: √ проверено
Размер: 1.79 GB
Как cкачать? Как скачать Перестрелка через торрент | UTorrent

% Раздел Тема Автор DL S | L
Фильмы 2016 [DVDrip, WEB-DLRip, HDrip] (DUB, MVO) [ 1.46 GB ] Перестрелка / Free Fire [2016 BDRip] - [] Twi7ter Скачать
1 | 0
Фильмы 2016 [DVDrip, WEB-DLRip, HDrip] (DUB, MVO) [ 712 MB ] Перестрелка / Free Fire [2016 HDRip "BD RUS"] coc900 Скачать
1 | 0
Фильмы без перевода [ 16.59 GB ] Перестрелка / Free Fire [2016 BDRemux] [Оригинал-ENG] smaster Скачать
1 | 0
Фильмы (Blu-ray, BD-Remux, HDDVD) [ 16.8 GB ] Перестрелка / Free Fire [2016 BD Remux 1080p] bober100 Скачать
1 | 0
Фильмы [HD 720p, 1080p] (Хороший звук DUB, MVO) [ 7.22 GB ] Перестрелка / Free Fire [2016 BDRip 1080p] bober100 Скачать
1 | 0
Фильмы [HD 720p, 1080p] (Хороший звук DUB, MVO) [ 3.78 GB ] Перестрелка / Free Fire [2016 BDRip 720p] bober100 Скачать
1 | 0
Фильмы (WEB-DL 720p, 1080p) [ 2.62 GB ] Перестрелка / Free Fire [2016 WEB-DL 720p] bober100 Скачать
1 | 0

28-11-2019 20:33  

Отключить всю рекламу на сайте

    Дорогой пользователь! Огромная просьба, поблагодарите релизера, оцените раздачу и оставьте свои комментарий, если Вы скачали Перестрелка через торрент бесплатно! Внесите свою лепту в развитие PiratBit!
    Комментировать посты могут только пользователи прошедшие не сложную регистрацию
    Показать сообщения:    

    Перестрелка через торрент
    Скачать бесплатно Перестрелка
    Перестрелка скачать торрент
    Перестрелка смотреть онлайн
    Cкачать фильм Перестрелка бесплатно
    Перестрелка скачать торрент в хорошем качестве
    Перестрелка смотреть онлайн бесплатно в хорошем качестве


    Вы не можете начинать темы
    Вы не можете отвечать на сообщения
    Вы не можете редактировать свои сообщения
    Вы не можете удалять свои сообщения
    Вы не можете голосовать в опросах
    Вы не можете прикреплять файлы к сообщениям
    Вы можете скачивать файлы