Ссылка на приватное зеркало нашего сайта всего за 1$. Внимание количество ограничено!!!

2 сезон

iTunes

1 сезон

1

iTunes

iTunes

iTunes

1 сезон

RePack

30

ИГРА 18+

pack

ВАЖНО

!!Акция!!

Alien_RageХит недели

RePack

MK11
pack

Забери бонус

RePack

jed

!!Акция!!

Alien_Rage

RePack

fifa19

RePack

Assassins Creed: Odyssey

RePack

NEED FOR SPEED™ PAYBACK

4 сезон

9 сезон

Бесстыжие 9 сезон

Все сериалы

все сериалы на PB.wtf

RePack

FAR CRY 5
  

Запятнанная репутация / The Human Stain (Роберт Бентон) [2003, драма, мелодрама, BDRip 1080p by msltel] DUB, DVO, 2 x AVO pb.wtf

Запятнанная репутация через торрент pb.wtf

Размер: 13.93 GB | Добавлен: 2 года 11 мес. назад | Торрент скачан:53 раза
Скачать  

14-11-2017 06:42 Запятнанная репутация Скачать торрент  

Название: Запятнанная репутация
Оригинальное название: The Human Stain
Год выпуска: 2003
Страна: США, Германия, Франция
Жанр: драма, мелодрама
Продолжительность: 01:47:46
Перевод: дублированный, профессиональный двухголосый, авторский

Режиссер: Роберт Бентон
В ролях: Энтони Хопкинс, Николь Кидман, Эд Харрис, Гэри Синиз, Вентворт Миллер, Джасинда Бэрретт, Гарри Дж. Ленникс, Кларк Грегг, Анна Дивер Смит, Лизэн Митчел, Керри Вашингтон, Филлис Ньюман, Марго Мартиндейл, Рон Кэнада, Мили Авитал, Дэнни Бланко, Кристен Блевинс, Энн Дудек, Мими Кузык, Джон Финн, Джессика Уинтерстерн, Джефф Перри, Рик Снайдер, Дэнни Стоун, Вито Филлипо, Роберт Хигден, Власта Врана, Ричард Мэйв, Том Рэк, Билл Роуэт

О фильме: Неосторожная шутка, воспринятая как расистское замечание в адрес чернокожих студентов, вынуждает уважаемого профессора Колмана Силка со скандалом покинуть родной университет. Это известие становится фатальным для жены Колмана, которая умирает от сердечного приступа. Убитый горем профессор отчаянно пытается восстановить запятнанную репутацию, но знакомство с молодой уборщицей Фонией дарит ему неожиданное утешение. Поставив на кон свою репутацию, Колман безоглядно отдаётся новому чувству, и вскоре между ним и яркой и неукротимой женщиной, чьи несчастья умножает муж-психопат, вспыхивает страстная любовь. Однако их сложные отношения внезапно оказываются под угрозой, когда становится ясно, что Колмана и Фонию объединяет не только страсть, но и мрачные тайны, которые они так долго хранили в своей душе... Фильм снят по мотивам романа Филипа Рота «Людское клеймо» (The Human Stain, 2000).



Качество: BDRip 1080p
Формат: MKV
Видео: MPEG-4 AVC, 11.7 Mбит/с, 1920x814
Аудио 1: русский, DTS, 768 kbps, 6 ch, 48 kHz [дублированный]
Аудио 2: русский, DTS, 1509 kbps, 6 ch, 48 kHz [профессиональный двухголосый, DDV]
Аудио 3: русский, DTS, 1509 kbps, 6 ch, 48 kHz [авторский, Евгений Рудой]
Аудио 4: русский, DTS, 1509 kbps, 6 ch, 48 kHz [авторский, Юрий Сербин]
Аудио 5: английский, DTS, 1509 kbps, 6 ch, 48 kHz [оригинал]
Субтитры 1: русские
Субтитры 2: английские
Неименованные главы/чаптеры.
Общее
Уникальный идентификатор : 242970717253205192167829388615098484999 (0xB6CA753F45E2C2B985A298BAB6EEC907)
Полное имя : D:\Video\Запятнанная репутация.2003.BDRip.1080p by msltel.mkv
Формат : Matroska
Версия формата : Version 4 / Version 2
Размер файла : 13,9 Гбайт
Продолжительность : 1 ч. 47 м.
Общий поток : 18,5 Мбит/сек
Название фильма : Rip by msltel
Дата кодирования : UTC 2017-11-14 03:12:36
Программа кодирования : mkvmerge v8.2.0 ('World of Adventure') 64bit
Библиотека кодирования : libebml v1.3.1 + libmatroska v1.4.2

Видео
Идентификатор : 1
Формат : AVC
Формат/Информация : Advanced Video Codec
Профиль формата : High@L4.1
Настройки формата : CABAC / 4 Ref Frames
Параметр CABAC формата : Да
Параметр RefFrames формата : 4 кадра
Идентификатор кодека : V_MPEG4/ISO/AVC
Продолжительность : 1 ч. 47 м.
Битрейт : 11,7 Мбит/сек
Ширина : 1920 пикселей
Высота : 814 пикселей
Соотношение сторон : 2,35:1
Режим частоты кадров : Постоянный
Частота кадров : 23,976 (24000/1001) кадра/сек
Цветовое пространство : YUV
Субдискретизация насыщенности : 4:2:0
Битовая глубина : 8 бит
Тип развёртки : Прогрессивная
Бит/(Пиксели*Кадры) : 0.312
Размер потока : 8,80 Гбайт (63%)
Библиотека кодирования : x264 core 146 r2538 121396c
Настройки программы : cabac=1 / ref=4 / deblock=1:-3:-2 / analyse=0x3:0x113 / me=umh / subme=11 / psy=1 / psy_rd=1.00:0.15 / mixed_ref=1 / me_range=32 / chroma_me=1 / trellis=2 / 8x8dct=1 / cqm=0 / deadzone=21,11 / fast_pskip=0 / chroma_qp_offset=-3 / threads=6 / lookahead_threads=1 / sliced_threads=0 / nr=0 / decimate=1 / interlaced=0 / bluray_compat=0 / constrained_intra=0 / bframes=8 / b_pyramid=2 / b_adapt=2 / b_bias=0 / direct=1 / weightb=1 / open_gop=0 / weightp=2 / keyint=230 / keyint_min=23 / scenecut=40 / intra_refresh=0 / rc_lookahead=40 / rc=crf / mbtree=0 / crf=17.5 / qcomp=0.60 / qpmin=0 / qpmax=69 / qpstep=4 / vbv_maxrate=62500 / vbv_bufsize=78125 / crf_max=0.0 / nal_hrd=none / filler=0 / ip_ratio=1.40 / pb_ratio=1.30 / aq=1:1.00
Язык : English
Default : Да
Forced : Нет

Аудио #1
Идентификатор : 2
Формат : DTS
Формат/Информация : Digital Theater Systems
Идентификатор кодека : A_DTS
Продолжительность : 1 ч. 47 м.
Вид битрейта : Постоянный
Битрейт : 768 Кбит/сек
Каналы : 6 каналов
Расположение каналов : Front: L C R, Side: L R, LFE
Частота : 48,0 КГц
Частота кадров : 93,750 кадра/сек (512 SPF)
Битовая глубина : 24 бит
Метод сжатия : С потерями
Размер потока : 592 Мбайт (4%)
Заголовок : DUB
Язык : Russian
Default : Да
Forced : Нет

Аудио #2
Идентификатор : 3
Формат : DTS
Формат/Информация : Digital Theater Systems
Идентификатор кодека : A_DTS
Продолжительность : 1 ч. 47 м.
Вид битрейта : Постоянный
Битрейт : 1509 Кбит/сек
Каналы : 6 каналов
Расположение каналов : Front: L C R, Side: L R, LFE
Частота : 48,0 КГц
Частота кадров : 93,750 кадра/сек (512 SPF)
Битовая глубина : 16 бит
Метод сжатия : С потерями
Размер потока : 1,14 Гбайт (8%)
Заголовок : DVO DDV
Язык : Russian
Default : Нет
Forced : Нет

Аудио #3
Идентификатор : 4
Формат : DTS
Формат/Информация : Digital Theater Systems
Идентификатор кодека : A_DTS
Продолжительность : 1 ч. 47 м.
Вид битрейта : Постоянный
Битрейт : 1509 Кбит/сек
Каналы : 6 каналов
Расположение каналов : Front: L C R, Side: L R, LFE
Частота : 48,0 КГц
Частота кадров : 93,750 кадра/сек (512 SPF)
Битовая глубина : 16 бит
Метод сжатия : С потерями
Размер потока : 1,14 Гбайт (8%)
Заголовок : Евгений Рудой
Язык : Russian
Default : Нет
Forced : Нет

Аудио #4
Идентификатор : 5
Формат : DTS
Формат/Информация : Digital Theater Systems
Идентификатор кодека : A_DTS
Продолжительность : 1 ч. 47 м.
Вид битрейта : Постоянный
Битрейт : 1509 Кбит/сек
Каналы : 6 каналов
Расположение каналов : Front: L C R, Side: L R, LFE
Частота : 48,0 КГц
Частота кадров : 93,750 кадра/сек (512 SPF)
Битовая глубина : 16 бит
Метод сжатия : С потерями
Размер потока : 1,14 Гбайт (8%)
Заголовок : Юрий Сербин
Язык : Russian
Default : Нет
Forced : Нет

Аудио #5
Идентификатор : 6
Формат : DTS
Формат/Информация : Digital Theater Systems
Идентификатор кодека : A_DTS
Продолжительность : 1 ч. 47 м.
Вид битрейта : Постоянный
Битрейт : 1509 Кбит/сек
Каналы : 6 каналов
Расположение каналов : Front: L C R, Side: L R, LFE
Частота : 48,0 КГц
Частота кадров : 93,750 кадра/сек (512 SPF)
Битовая глубина : 16 бит
Метод сжатия : С потерями
Размер потока : 1,14 Гбайт (8%)
Заголовок : original
Язык : English
Default : Нет
Forced : Нет

Текст #1
Идентификатор : 7
Формат : UTF-8
Идентификатор кодека : S_TEXT/UTF8
Идентификатор кодека/Информация : UTF-8 Plain Text
Продолжительность : 1 ч. 41 м.
Битрейт : 92 бит/сек
ElementCount : 1192
Размер потока : 69,0 Кбайт (0%)
Заголовок : русские
Язык : Russian
Default : Нет
Forced : Нет

Текст #2
Идентификатор : 8
Формат : UTF-8
Идентификатор кодека : S_TEXT/UTF8
Идентификатор кодека/Информация : UTF-8 Plain Text
Продолжительность : 1 ч. 40 м.
Битрейт : 72 бит/сек
ElementCount : 1166
Размер потока : 53,5 Кбайт (0%)
Заголовок : английские
Язык : English
Default : Нет
Forced : Нет

Меню
00:00:00.000 : :Chapter 01
00:08:49.654 : :Chapter 02
00:14:44.008 : :Chapter 03
00:22:30.390 : :Chapter 04
00:30:38.169 : :Chapter 05
00:38:05.699 : :Chapter 06
00:48:13.515 : :Chapter 07
00:58:42.185 : :Chapter 08
01:08:14.215 : :Chapter 09
01:12:58.290 : :Chapter 10
01:23:42.142 : :Chapter 11
01:34:31.582 : :Chapter 12
01:43:03.510 : :Chapter 13
01:47:46.376 : :Chapter 14
pb.wtf



Скачать Запятнанная репутация через торрент http://s018.radikal.ru/i517/1711/29/83dc483b05e6.jpg Скачать фильм Запятнанная репутация через торрент бесплантно в хорошем качестве О фильме: Неосторожная шутка, воспринятая как расистское замечание в адрес чернокожих студентов, вынуждает уважаемого профессора Колмана ... 9.3 10 7
Info! Золотая раздача, скачанное не засчитывается.
Торрент: Зарегистрирован [2017-11-14 06:42] · скачан: 53 раз
Статус: √ проверено
Размер: 13.93 GB
Как cкачать? Как скачать Запятнанная репутация через торрент | qTorrent

% Раздел Тема Автор DL S | L
Фильмы [HD 720p, 1080p] (Хороший звук DUB, MVO) [ 5.12 GB ] Запятнанная репутация / The Human Stain [2003 BDRip 720p by msltel] DUB DVO 2 x AVO msltel Скачать
1 | 0

28-11-2019 20:33  

Отключить всю рекламу на сайте

26-11-2017 18:07 Запятнанная репутация Скачать торрент  

Хорошее серьезное кино, наверно для 30+. Николь - богиня конечно, повезло в 2003 Хопкинсу, хоть так. Да и не только ему.pb.wtf



    Дорогой пользователь! Огромная просьба, поблагодарите релизера, оцените раздачу и оставьте свои комментарий, если Вы скачали Запятнанная репутация через торрент бесплатно! Внесите свою лепту в развитие PiratBit!
    Комментировать посты могут только пользователи прошедшие не сложную регистрацию
    Показать сообщения:    

    Запятнанная репутация через торрент
    Скачать бесплатно Запятнанная репутация
    Запятнанная репутация скачать торрент
    Запятнанная репутация смотреть онлайн
    Cкачать фильм Запятнанная репутация бесплатно
    Запятнанная репутация скачать торрент в хорошем качестве
    Запятнанная репутация смотреть онлайн бесплатно в хорошем качестве


    Вы не можете начинать темы
    Вы не можете отвечать на сообщения
    Вы не можете редактировать свои сообщения
    Вы не можете удалять свои сообщения
    Вы не можете голосовать в опросах
    Вы не можете прикреплять файлы к сообщениям
    Вы можете скачивать файлы