Ссылка на приватное зеркало нашего сайта всего за 1$. Внимание количество ограничено!!!

2 сезон

iTunes

1 сезон

1

2 сезон

2 сезон

iTunes

1 сезон

RePack

30

Новинка

ВАЖНО

ИГРА 18+

pack

RePack

MK11
pack

Забери бонус

RePack

jed

!!Акция!!

Alien_Rage

RePack

fifa19

RePack

Assassins Creed: Odyssey

RePack

NEED FOR SPEED™ PAYBACK

4 сезон

9 сезон

Бесстыжие 9 сезон

Все сериалы

все сериалы на PB.wtf

RePack

FAR CRY 5
  

Сверхлюди / Нелюди / Inhumans / Сезон 1 / Серии 1-8 из 8 (Роэль Рейн, Крис Фишер, Билл Джирхарт) [2017, Фантастика, боевик, приключения, WEB-DLRip] MVO [LostFilm] pb.wtf

Сверхлюди через торрент pb.wtf

Размер: 4.04 GB | Добавлен: 3 года назад | Торрент скачан:204 раза
Скачать  

14-11-2017 08:18 Сверхлюди Скачать торрент  

Сверхлюди / Нелюди / InhumansГод выпуска: 2017
Страна: США
Жанр: Фантастика, боевик, приключения
Продолжительность: 8 x ~ 00:45:00
Перевод: Профессиональный многоголосый - LostFilm
Субтитры: отсутствуют
Реклама: Полностью отсутствует

Режиссер: Роэль Рейн, Крис Фишер, Билл Джирхарт

rating

В ролях:

Соня Балморес, Изабель Корниш, Эме Иквуакор, Кен Люн, Майк Мо, Энсон Маунт, Иван Реон, Серинда Свон, Эллен Воглом, Генри Иэн Кьюсик

Описание:

История Королевской семьи, принадлежащей к расе Сверхлюдей. Вследствие военного переворота члены королевской фамилии под предводительством Чёрного Грома вынуждены покинуть свой дом в лунном городе Аттилан и бежать на острова, как в дальнейшем оказывается — Гавайи, где им предстоит спасать не только себя, но и весь мир от гибели.

Качество: WEB-DLRip (чистый видеоряд)
Формат: AVI
Видео кодек: XviD
Аудио кодек: AC3

Видео: 720x400, 23.976 fps, XviD ~1300 kbps
Аудио: Русский (AC3, 2 ch, 384 Кбит/с)
скриншот   скриншот   скриншот   скриншот  

Общее
Полное имя : D:\торреннты\Marvels. Inhumans (Season 01) WEBDLRip GeneralFilm\Marvels.Inhumans.S01E01.WEB-DLRip.GeneralFilm.avi
Формат : AVI
Формат/Информация : Audio Video Interleave
Размер файла : 515 Мбайт
Продолжительность : 42 м. 29 с.
Общий поток : 1694 Кбит/сек
Программа кодирования : VirtualDubMod 1.5.10.2 (build 2540/release)
Библиотека кодирования : VirtualDubMod build 2540/release

Видео
Идентификатор : 0
Формат : MPEG-4 Visual
Профиль формата : Advanced Simple@L5
Параметр BVOP формата : 1
Параметр QPel формата : Нет
Параметр GMC формата : Без точки перехода
Параметр матрицы формата : Default (MPEG)
Идентификатор кодека : XVID
Идентификатор кодека/Подсказка : XviD
Продолжительность : 42 м. 29 с.
Битрейт : 1300 Кбит/сек
Ширина : 720 пикселей
Высота : 400 пикселей
Соотношение сторон : 16:9
Частота кадров : 23,976 (23976/1000) кадра/сек
Цветовое пространство : YUV
Субдискретизация насыщенности : 4:2:0
Битовая глубина : 8 бит
Тип развёртки : Прогрессивная
Метод сжатия : С потерями
Бит/(Пиксели*Кадры) : 0.188
Размер потока : 395 Мбайт (77%)
Библиотека кодирования : XviD 73

Аудио
Идентификатор : 1
Формат : AC-3
Формат/Информация : Audio Coding 3
Расширение режима : CM (complete main)
Параметр Endianness формата : Big
Идентификатор кодека : 2000
Продолжительность : 42 м. 29 с.
Вид битрейта : Постоянный
Битрейт : 384 Кбит/сек
Каналы : 2 канала
Расположение каналов : Front: L R
Частота : 48,0 КГц
Частота кадров : 31,250 кадров/сек (1536 spf)
Метод сжатия : С потерями
Размер потока : 117 Мбайт (23%)
Выравнивание : Разделение по промежуткам
Продолжительность промежутка : 42 мс. (1,00 видеокадр)
Время предзагрузки промежутка : 500 мс.

pb.wtf



Скачать Сверхлюди через торрент http://i89.fastpic.ru/big/2017/1002/24/009837a00f4db1aefd8bd4d0f5b2e824.jpg Скачать фильм Сверхлюди через торрент бесплантно в хорошем качестве Описание: История Королевской семьи, принадлежащей к расе Сверхлюдей. Вследствие военного переворота члены королевской фамилии под ... 9.1 10 10
Торрент: Зарегистрирован [2017-11-14 08:18] · скачан: 204 раз
Статус: √ проверено
Размер: 4.04 GB
Как cкачать? Как скачать Сверхлюди через торрент | qTorrent

% Раздел Тема Автор DL S | L
Зарубежные сериалы [ 14.09 GB ] Сверхлюди / Нелюди / Marvel's Inhumans / Сезон: 1 / Серии 1-8 из 8 [2017 WEBRip 720p] MVO [BaibaKo] GEKADOL Скачать
1 | 0
Зарубежные сериалы [ 11.46 GB ] Сверхлюди / Нелюди / Inhumans / Сезон 1 / Серии 1-8 из 8 [2017 WEB-DL 720p] MVO [Jaskier] bober100 Скачать
1 | 0
Зарубежные сериалы [ 14.08 GB ] Сверхлюди / Нелюди / Inhumans / Сезон 1 / Серии 1-8 из 8 [2017 WEB-DL 1080p] MVO [Jaskier] bober100 Скачать
1 | 0
Зарубежные сериалы [ 4.21 GB ] Сверхлюди / Нелюди / Inhumans / Сезон 1 / Серии 1-8 из 8 [2017 WEB-DLRip] MVO [Jaskier] bober100 Скачать
1 | 0

28-11-2019 20:33  

Отключить всю рекламу на сайте

    Дорогой пользователь! Огромная просьба, поблагодарите релизера, оцените раздачу и оставьте свои комментарий, если Вы скачали Сверхлюди через торрент бесплатно! Внесите свою лепту в развитие PiratBit!
    Комментировать посты могут только пользователи прошедшие не сложную регистрацию
    Показать сообщения:    

    Сверхлюди через торрент
    Скачать бесплатно Сверхлюди
    Сверхлюди скачать торрент
    Сверхлюди смотреть онлайн
    Cкачать фильм Сверхлюди бесплатно
    Сверхлюди скачать торрент в хорошем качестве
    Сверхлюди смотреть онлайн бесплатно в хорошем качестве


    Вы не можете начинать темы
    Вы не можете отвечать на сообщения
    Вы не можете редактировать свои сообщения
    Вы не можете удалять свои сообщения
    Вы не можете голосовать в опросах
    Вы не можете прикреплять файлы к сообщениям
    Вы можете скачивать файлы