Достать ножи: Стеклянная луковица

MVO

Добыча

Дубляж

Уэнсдэй

1 сезон

Тор

Дубляж

13 клиническая

1 сезон

Жестокая ночь

MVO

Одни из нас

1 сезон

Deluxe

pack

Рекомендуем

30

Пиратка

ВАЖНО

ВАЖНО

Ghostwire

Пиратка

jed

RePack

nioh2

RePack

RDR2

RePack

NEED FOR SPEED™ PAYBACK

RePack

скачать торрент

Кинопоиск HD

Острые козырьки 6 сезон

6 сезон

FAR CRY 6

RePack

скачать торрент

Лицензия

скачать торрент

MVO

1

1 сезон

скачать торрент

1 сезон

скачать торрент

Лицензия

  

Жестокость (Владимир Скуйбин) [1959, СССР, драма, криминал, DVDRip от AVP Studio]

Жестокость через торрент pb.wtf

Размер: 745 MB | Добавлен: 5 лет 2 мес. назад | Торрент скачан:18 раз
Смотреть онлайн | Скачать | Поддержите нас   

14-11-2017 11:51 Жестокость Скачать торрент  

Жестокость
Страна: СССР
Производство: Мосфильм

Жанр: драма, криминал
Год выпуска: 1959
Продолжительность: 01:26:49

Перевод: Не требуется
Cубтитры: нет
Оригинальная аудиодорожка: русский

Режиссер: Владимир Скуйбин

В ролях:
Георгий Юматов, Борис Андреев, Николай Крючков, Александр Суснин, Владимир Андреев, Маргарита Жигунова, Клавдия Хабарова, Аполлон Ячницкий, Николай Погодин, Вячеслав Богачёв, Алексей Коротюков...
Об актёрах подробней

Описание:
По мотивам одноименной повести Павла Нилина.
Действие фильма происходит в начале 1920‑х годов в глухом сибирском городишке Дудари. Округу на сотни вёрст терроризирует банда Кости Воронцова, объявившего себя «императором всея тайги». Задача ликвидации банды возложена на дударевский угрозыск.

Источник: DVD5 R5
Качество видео: DVDRip
Формат видео: AVI

Видео: 640x480 (4:3), 25 fps, XviD ~ 1063 kbps avg, 0.138 bit/pixel
Аудио: 48 kHz, MP3 2.0, 128 kbps

Раздача от:
Общее
Полное имя : Zhestokost.1959.DVDRip-745_[New-team]_by_AVP_Studio.avi
Формат : AVI
Формат/Информация : Audio Video Interleave
Размер файла : 745 Мбайт
Продолжительность : 1 ч. 26 м.
Общий поток : 1201 Кбит/сек
Программа кодирования : VirtualDubMod 1.5.10.3 | www.virtualdub-fr.org || (build 2550/release)
Библиотека кодирования : VirtualDubMod build 2550/release

Видео
Идентификатор : 0
Формат : MPEG-4 Visual
Профиль формата : Advanced [email protected]
Параметр BVOP формата : 1
Параметр QPel формата : Нет
Параметр GMC формата : Без точки перехода
Параметр матрицы формата : Выборочная
Идентификатор кодека : XVID
Идентификатор кодека/Подсказка : XviD
Продолжительность : 1 ч. 26 м.
Битрейт : 1063 Кбит/сек
Ширина : 640 пикселей
Высота : 480 пикселей
Соотношение сторон : 4:3
Частота кадров : 25,000 кадров/сек
Цветовое пространство : YUV
Субдискретизация насыщенности : 4:2:0
Битовая глубина : 8 бит
Тип развёртки : Прогрессивная
Метод сжатия : С потерями
Бит/(Пиксели*Кадры) : 0.138
Размер потока : 660 Мбайт (89%)
Библиотека кодирования : XviD 73

Аудио
Идентификатор : 1
Формат : MPEG Audio
Версия формата : Version 1
Профиль формата : Layer 3
Идентификатор кодека : 55
Идентификатор кодека/Подсказка : MP3
Продолжительность : 1 ч. 26 м.
Вид битрейта : Постоянный
Битрейт : 128 Кбит/сек
Каналы : 2 канала
Частота : 48,0 КГц
Метод сжатия : С потерями
Размер потока : 79,5 Мбайт (11%)
Выравнивание : Соединение по промежуткам
Продолжительность промежутка : 40 мс. (1,00 видеокадр)
Время предзагрузки промежутка : 504 мс.
Библиотека кодирования : LAME3.99r
Настройки программы : -m s -V 4 -q 2 -lowpass 17 -b 128



Скачать Жестокость через торрент http://s018.radikal.ru/i505/1711/d0/1099a20b3967.png Скачать, смотреть онлайн Жестокость бесплантно в хорошем качестве Описание:По мотивам одноименной повести Павла Нилина.Действие фильма происходит в начале 1920‑х годов в глухом сибирском городишке Дудари. ... 5 10 1
Info! Золотая раздача, скачанное не засчитывается.
Торрент: Зарегистрирован [2017-11-14 11:51] · скачан: 18 раз
Статус: √ проверено
Размер: 745 MB
Как cкачать? Как скачать Жестокость через торрент | UTorrent

% Раздел Тема Автор DL S | L
Кино СССР [ 1.09 GB ] Жестокость | | DVDRip-AVC от AVP Studio AVP Studio Скачать
1 | 0
Кино СССР [ 1.09 GB ] Жестокость | | DVDRip от AVP Studio AVP Studio Скачать
1 | 0

28-11-2019 20:33  


Отключить вcю реклaмy на сайте, в т.ч. и в плеере онлайн просмотра!

    Дорогой пользователь! Огромная просьба, поблагодарите релизера, оцените раздачу и оставьте свои комментарий, если Вы скачали Жестокость через торрент бесплатно!!
    Комментировать посты могут только пользователи прошедшие не сложную регистрацию
    Показать сообщения:    


    Жестокость через торрент
    Скачать бесплатно Жестокость
    Жестокость скачать торрент
    Жестокость смотреть онлайн
    Cкачать фильм Жестокость бесплатно
    Жестокость скачать торрент в хорошем качестве
    Жестокость смотреть онлайн бесплатно в хорошем качестве
    Вы не можете начинать темы
    Вы не можете отвечать на сообщения
    Вы не можете редактировать свои сообщения
    Вы не можете удалять свои сообщения
    Вы не можете голосовать в опросах
    Вы не можете прикреплять файлы к сообщениям
    Вы можете скачивать файлы
    Жестокость [1959, СССР, драма, криминал, DVDRip от AVP Studio] смотреть онлайн, скачать торрент picoco.icu