Ссылка на приватное зеркало нашего сайта всего за 1$. Внимание количество ограничено!!!

2 сезон

iTunes

1 сезон

1

2 сезон

2 сезон

iTunes

1 сезон

RePack

30

Ultimate

ВАЖНО

ИГРА 18+

pack

RePack

MK11
pack

Забери бонус

RePack

jed

!!Акция!!

Alien_Rage

RePack

fifa19

RePack

Assassins Creed: Odyssey

RePack

NEED FOR SPEED™ PAYBACK

4 сезон

9 сезон

Бесстыжие 9 сезон

Все сериалы

все сериалы на PB.wtf

RePack

FAR CRY 5
  

Дед Мороз всегда звонит… трижды! (Константин Статский) [2012 г., Комедия, DVDRip-AVC, Не требуется Русский] от ExKinoRay pb.wtf

Дед Мороз всегда звонит… трижды! через торрент pb.wtf

Размер: 1.8 GB | Добавлен: 3 года назад | Торрент скачан:45 раз
Скачать  

14-11-2017 15:12 Дед Мороз всегда звонит… трижды! Скачать торрент  

Дед Мороз всегда звонит… трижды!
Год выпуска: 2012
Страна: Россия
Жанр: Комедия
Продолжительность: 01:39:44
Перевод: Не требуется Русский

Режиссер: Константин Статский

Премьера в мире: 2 января 2012



В ролях: Максим Виторган, Валерий Меладзе, Татьяна Васильева, Максим Матвеев, Михаил Трухин, Андрей Фролов, Камиль Ларин, Юлия Ауг, Ирина Цывина

Описание: Эта история произошла в обычной московской семье, на одной из улиц, в одном из домов… Началась она незадолго до Нового года — а вот закончилась уже по его наступлении. В семье наших героев, как, впрочем, и в любой другой семье перед праздником — новогодний переполох. Теща ссорится с главой семьи, ребенок задергал старших родственников вопросом: «А Дед Мороз придет?» А жена главного героя, между приготовлением салатов, украшением елки и накрыванием стола, пытается всех успокоить и примирить!
Но в самый разгар этой семейно-новогодней войны главный возмутитель спокойствия — хозяин дома — неожиданно… самоустраняется с поля боевых действий! Антикварная дверь в туалет, купленная в канун праздника тещей, захлопывается, оставляя нашего героя без праздника, а гостей — без хозяина! Что делать? Ломать дверь и окончательно разругаться с тещей? Подождать слесаря и пропустить праздник? А может, это вынужденное заточение — отличный повод разобраться в себе и, наконец, восстановить мир в доме?

Качество: DVDRip-AVC
Формат: MKV
Видео кодек: MPEG4
Аудио кодек: AC3
Видео: MPEG-4 AVC, 2200 Кбит/с, 716x430@762x430, 25 кадров/сек
Аудио#1: AC3, 2 ch, 384 Кбит/с, 48 КГц
Релиз от:




raw [info]: 716x430p 16:15 @ 25/1 fps (cfr)
x264 [info]: using SAR=16/15
x264 [info]: using cpu capabilities: MMX2 SSE2Fast LZCNT
x264 [info]: profile High, level 4.1
x264 [info]: frame I:1377 Avg QP:15.03 size: 52440
x264 [info]: frame P:31373 Avg QP:17.54 size: 22393
x264 [info]: frame B:116866 Avg QP:18.99 size: 7449
x264 [info]: consecutive B-frames: 1.7% 2.4% 7.7% 17.6% 13.9% 49.6% 3.9% 1.2% 1.1% 0.3% 0.1% 0.4% 0.0% 0.0% 0.0% 0.0% 0.0%
-----
Общее
Уникальный идентификатор : 193722356695888408688524388473336743401 (0x91BD919AA27918A598F27B5BC14BC5E9)
Полное имя : D:\ExKinoRay\Ded.Moroz.Zvonit3.2011.DVDRip-AVC.ExKinoRay.mkv
Формат : Matroska
Версия формата : Version 2
Размер файла : 1,80 Гбайт
Продолжительность : 1 ч. 39 м.
Общий поток : 2585 Кбит/сек
Дата кодирования : UTC 2017-11-14 12:58:33
Программа кодирования : mkvmerge v7.8.0 ('River Man') 32bit built on Apr 3 2015 12:11:22
Библиотека кодирования : libebml v1.3.1 + libmatroska v1.4.2

Видео
Идентификатор : 1
Формат : AVC
Формат/Информация : Advanced Video Codec
Профиль формата : High@L4.1
Параметр CABAC формата : Да
Параметр ReFrames формата : 14 кадров
Идентификатор кодека : V_MPEG4/ISO/AVC
Продолжительность : 1 ч. 39 м.
Битрейт : 2200 Кбит/сек
Ширина : 716 пикселей
Высота : 430 пикселей
Соотношение сторон : 16:9
Соотношение сторон в оригинале : 16:9
Режим частоты кадров : Постоянный
Частота кадров : 25,000 кадров/сек
Цветовое пространство : YUV
Субдискретизация насыщенности : 4:2:0
Битовая глубина : 8 бит
Тип развёртки : Прогрессивная
Бит/(Пиксели*Кадры) : 0.286
Размер потока : 1,50 Гбайт (83%)
Библиотека кодирования : x264 core 148 r2638 7599210
Настройки программы : cabac=1 / ref=14 / deblock=1:-2:-2 / analyse=0x3:0x133 / me=umh / subme=10 / psy=1 / psy_rd=1.05:0.15 / mixed_ref=1 / me_range=32 / chroma_me=1 / trellis=2 / 8x8dct=1 / cqm=0 / deadzone=21,11 / fast_pskip=0 / chroma_qp_offset=-3 / threads=4 / lookahead_threads=1 / sliced_threads=0 / nr=0 / decimate=0 / interlaced=0 / bluray_compat=0 / constrained_intra=0 / bframes=16 / b_pyramid=2 / b_adapt=2 / b_bias=0 / direct=3 / weightb=1 / open_gop=0 / weightp=2 / keyint=250 / keyint_min=25 / scenecut=40 / intra_refresh=0 / rc=2pass / mbtree=0 / bitrate=2200 / ratetol=1.0 / qcomp=0.60 / qpmin=0 / qpmax=69 / qpstep=4 / cplxblur=20.0 / qblur=0.5 / ip_ratio=1.40 / pb_ratio=1.30 / aq=1:1.00
Default : Да
Forced : Нет
Цветовой диапазон : Limited
Основные цвета : BT.601 NTSC
Характеристики трансфера : BT.601
Коэффициенты матрицы : BT.601

Аудио
Идентификатор : 2
Формат : AC-3
Формат/Информация : Audio Coding 3
Расширение режима : CM (complete main)
Параметр Endianness формата : Big
Идентификатор кодека : A_AC3
Продолжительность : 1 ч. 39 м.
Вид битрейта : Постоянный
Битрейт : 384 Кбит/сек
Каналы : 2 канала
Расположение каналов : Front: L R
Частота : 48,0 КГц
Частота кадров : 31,250 кадров/сек (1536 spf)
Метод сжатия : С потерями
Размер потока : 274 Мбайт (15%)
Язык : Russian
Default : Да
Forced : Нет

pb.wtf



Скачать Дед Мороз всегда звонит… трижды! через торрент http://s013.radikal.ru/i323/1711/0a/8b052c41c9c0.jpg Скачать фильм Дед Мороз всегда звонит… трижды! через торрент бесплантно в хорошем качестве Описание: Эта история произошла в обычной московской семье, на одной из улиц, в одном из домов… Началась она незадолго до Нового года — а ... 8.2 10 5
Info! Золотая раздача, скачанное не засчитывается.
Торрент: Зарегистрирован [2017-11-14 15:12] · скачан: 45 раз
Статус: √ проверено
Размер: 1.8 GB
Как cкачать? Как скачать Дед Мороз всегда звонит… трижды! через торрент | qTorrent

28-11-2019 20:33  

Отключить всю рекламу на сайте

14-11-2017 15:30 Дед Мороз всегда звонит… трижды! Скачать торрент  

Топик был перенесен из форума Наши фильмы 2010-2011 в форум Наши новые фильмы 2012


bober100pb.wtf



    Дорогой пользователь! Огромная просьба, поблагодарите релизера, оцените раздачу и оставьте свои комментарий, если Вы скачали Дед Мороз всегда звонит… трижды! через торрент бесплатно! Внесите свою лепту в развитие PiratBit!
    Комментировать посты могут только пользователи прошедшие не сложную регистрацию
    Показать сообщения:    

    Дед Мороз всегда звонит… трижды! через торрент
    Скачать бесплатно Дед Мороз всегда звонит… трижды!
    Дед Мороз всегда звонит… трижды! скачать торрент
    Дед Мороз всегда звонит… трижды! смотреть онлайн
    Cкачать фильм Дед Мороз всегда звонит… трижды! бесплатно
    Дед Мороз всегда звонит… трижды! скачать торрент в хорошем качестве
    Дед Мороз всегда звонит… трижды! смотреть онлайн бесплатно в хорошем качестве


    Вы не можете начинать темы
    Вы не можете отвечать на сообщения
    Вы не можете редактировать свои сообщения
    Вы не можете удалять свои сообщения
    Вы не можете голосовать в опросах
    Вы не можете прикреплять файлы к сообщениям
    Вы можете скачивать файлы