Мега распродажа FORZA HORIZON 4 ULTIMATE+ВСЕ DLC+ОНЛАЙН всего за 499р. 349 руб. (супер цена). Внимание количество ограничено!!!

iTunes

1+1

iTunes

мы

iTunes

1

1 сезон

Чернобыль

1 сезон

Ральф против интернета

Лицензия

ПШазам

8 сезон

Игра престолов

Лицензия

30
pack

ВАЖНО

!!Акция!!

Alien_RageХит недели

RePack

Resident Evil 21

ИГРА 18+

pack

RePack

Metro:Exodus

!!Акция!!

Alien_Rage

RePack

fifa19

RePack

Assassins Creed: Odyssey

RePack

NEED FOR SPEED™ PAYBACK

3 сезон

9 сезон

Бесстыжие 9 сезон

Все сериалы

все сериалы на PB.wtf

RePack

FAR CRY 5
Ребята, катастрофически не хватает 2730р. для оплаты серверов за ИЮНЬ (всвязи с блокировками трафик упал в 3 раза), 1-2р., выручайте.
  

Блэйд / Blade (Стивен Норрингтон) [1998 г., Ужасы, Боевик, Фэнтези, HDRip-AVC, Дубляж] pb.wtf

Блэйд через торрент pb.wtf

Размер: 2.16 GB | Добавлен: 1 год 7 мес. назад | Торрент скачан:16 раз
Скачать  

14-11-2017 16:40 Блэйд Скачать торрент  

Блэйд / BladeГод выпуска: 1998
Страна: США
Жанр: Ужасы, Боевик, Фэнтези
Продолжительность: 02:00:16
Перевод: Дубляж
Субтитры: отсутствуют

Режиссер: Стивен Норрингтон

Премьера в мире: 19 августа 1998

rating

В ролях: Уэсли Снайпс, Стивен Дорфф, Крис Кристофферсон, Н’Буш Райт, Донал Лог, Удо Кир, Арли Жовер, Трейси Лордс, Кевин Патрик Уоллс, Тим Гини

Описание: Получеловек-полувампир Блэйд намерен уничтожить виновника своей судьбы — Дьякона Фроста. Когда-то в кровь Блэйда попало совсем немного вампирского яда, но с течением времени он стал ощущать неизбежность своего превращения.
Желая избавить людей от тайной и могущественной армии вампиров, заполонившей общество, он отправляется на решающий бой…

Качество: HDRip-AVC
Формат: MKV
Видео кодек: H.264
Аудио кодек: AC3
Видео: AVC/H.264, 1024х432 (2,40:1), ~2190 kbps, 0.206 bit/pixel
Аудио#1: Русский: AC3, 6 ch, 384 kbps - Дубляж
Релиз от: winchester00100010
Общее
Уникальный идентификатор : 234583036830386183943694050062211782932 (0xB07B0CAC89444B95BB45EC2E66349914)
Полное имя : D:\Торрент файлы раздач вместе с фильмами\Blade.1998.HDRip-AVC.mkv
Формат : Matroska
Версия формата : Version 2
Размер файла : 2,16 Гбайт
Продолжительность : 2 ч. 0 м.
Общий поток : 2574 Кбит/сек
Дата кодирования : UTC 2017-09-23 23:42:52
Программа кодирования : mkvmerge v7.8.0 ('River Man') 32bit built on Apr 3 2015 12:11:22
Библиотека кодирования : libebml v1.3.1 + libmatroska v1.4.2

Видео
Идентификатор : 1
Формат : AVC
Формат/Информация : Advanced Video Codec
Профиль формата : High@L4.1
Настройки формата : CABAC / 12 Ref Frames
Параметр CABAC формата : Да
Параметр RefFrames формата : 12 кадров
Идентификатор кодека : V_MPEG4/ISO/AVC
Продолжительность : 2 ч. 0 м.
Битрейт : 2190 Кбит/сек
Ширина : 1024 пикселя
Высота : 432 пикселя
Соотношение сторон : 2,40:1
Режим частоты кадров : Постоянный
Частота кадров : 23,976 (24000/1001) кадра/сек
Цветовое пространство : YUV
Субдискретизация насыщенности : 4:2:0
Битовая глубина : 8 бит
Тип развёртки : Прогрессивная
Бит/(Пиксели*Кадры) : 0.206
Размер потока : 1,80 Гбайт (83%)
Библиотека кодирования : x264 core 146 r2538 121396c
Настройки программы : cabac=1 / ref=12 / deblock=1:-3:-3 / analyse=0x3:0x113 / me=umh / subme=11 / psy=1 / psy_rd=1.00:0.00 / mixed_ref=1 / me_range=32 / chroma_me=1 / trellis=2 / 8x8dct=1 / cqm=0 / deadzone=21,11 / fast_pskip=0 / chroma_qp_offset=-2 / threads=12 / lookahead_threads=2 / sliced_threads=0 / nr=0 / decimate=0 / interlaced=0 / bluray_compat=0 / constrained_intra=0 / bframes=10 / b_pyramid=2 / b_adapt=2 / b_bias=0 / direct=3 / weightb=1 / open_gop=0 / weightp=2 / keyint=240 / keyint_min=23 / scenecut=40 / intra_refresh=0 / rc_lookahead=40 / rc=2pass / mbtree=0 / bitrate=2190 / ratetol=1.0 / qcomp=0.60 / qpmin=0 / qpmax=69 / qpstep=4 / cplxblur=20.0 / qblur=0.5 / vbv_maxrate=14000 / vbv_bufsize=14000 / nal_hrd=none / filler=0 / ip_ratio=1.40 / pb_ratio=1.30 / aq=1:1.00
Default : Да
Forced : Нет

Аудио
Идентификатор : 2
Формат : AC-3
Формат/Информация : Audio Coding 3
Идентификатор кодека : A_AC3
Продолжительность : 2 ч. 0 м.
Вид битрейта : Постоянный
Битрейт : 384 Кбит/сек
Каналы : 6 каналов
Расположение каналов : Front: L C R, Side: L R, LFE
Частота : 48,0 КГц
Частота кадров : 31,250 кадров/сек (1536 SPF)
Битовая глубина : 16 бит
Метод сжатия : С потерями
Размер потока : 330 Мбайт (15%)
ServiceKind/String : Complete Main
Default : Да
Forced : Нет
pb.wtf



Скачать Блэйд через торрент http://pic1.kartinco.top/images/11/e392u.jpg Скачать фильм Блэйд через торрент бесплантно в хорошем качестве Описание: Получеловек-полувампир Блэйд намерен уничтожить виновника своей судьбы — Дьякона Фроста. Когда-то в кровь Блэйда попало совсем ... 10 10 6
Info! Золотая раздача, скачанное не засчитывается.
Торрент: Зарегистрирован [2017-12-11 16:24] · скачан: 16 раз
Статус: √ проверено
Размер: 2.16 GB
Как cкачать? Как скачать Блэйд через торрент | qTorrent

% Раздел Тема Автор DL S | L
Аниме [HD 720p, 1080p] [ 8.64 GB ] Бейблэйд Бёрст / Beyblade Burst / 1 сезон: / 1-51 из 51 серий [2016 WEBRip ] Бумер Скачать
1 | 0
Ultra HD (UHD: 2K, 4K, 8K) — видео сверхвысокой чёткости [ 58.44 GB ] Блэйд 2 / Blade II [2002 UHD BDRemux 2160p] DUB + AVO [Д. Пучков] sheker187 Скачать
1 | 1
Сборники (HD Video) [ 19.04 GB ] Блэйд: Трилогия / Blade: Trilogy [1998-2004 BDRip 1080p HEVC ] Мичман37 Скачать
1 | 0
Фильмы 2001-2005 [ 2.17 GB ] Блэйд 3: Троица / Blade: Trinity [2004 HDRip-AVC ] winchester00100010 Скачать
1 | 0
Фильмы 2001-2005 [ 2.16 GB ] Блэйд 2 / Blade II [2002 HDRip-AVC ] winchester00100010 Скачать
1 | 0
Сборники и Сиквелы (48-60 fps) [ 11.54 GB ] Блэйд: Трилогия / Blade: Trilogy [1998-2004 BDRip-AVC 60fps DVO] от R.G. HD-Films Tiberiumsun69 Скачать
2 | 0
Сборники и Сиквелы (48-60 fps) [ 37.07 GB ] Блэйд: Трилогия / Blade: Trilogy [1998-2004 BDRip 1080p / 60 FPS ] Tiberiumsun69 Скачать
1 | 0


>> Регистрируемся здесь <<






Отзывы и комментарии о схеме читаем и пишем здесь: ---> Отзывы и комментарии о схеме

Новые благодарочки в телеграм довольных пользователей:
скриншот   скриншот   скриншот   скриншот   скриншот

11-12-2017 16:25 Блэйд Скачать торрент  

Перезалил торрент файлик, так как человек писал вконтакте мне, что
он не может скачать и не качается раздача, перекачайте торрентpb.wtf



    Дорогой пользователь! Огромная просьба, поблагодарите релизера, оцените раздачу и оставьте свои комментарий, если Вы скачали Блэйд через торрент бесплатно! Внесите свою лепту в развитие PiratBit!
    Комментировать посты могут только пользователи прошедшие не сложную регистрацию
    Показать сообщения:    

    Блэйд через торрент
    Скачать бесплатно Блэйд
    Блэйд скачать торрент
    Блэйд смотреть онлайн
    Cкачать фильм Блэйд бесплатно
    Блэйд скачать торрент в хорошем качестве
    Блэйд смотреть онлайн бесплатно в хорошем качестве


    Вы не можете начинать темы
    Вы не можете отвечать на сообщения
    Вы не можете редактировать свои сообщения
    Вы не можете удалять свои сообщения
    Вы не можете голосовать в опросах
    Вы не можете прикреплять файлы к сообщениям
    Вы можете скачивать файлы