1 сезон

1 сезон

iTunes

1

КиноПоиск HD

Кинопоиск HD

iTunes

13

1 сезон

RePack

30

Новинка

ВАЖНО

ИГРА 18+

pack

RePack

MK11
pack

Легкие деньги

RePack

jed

RePack

fifa19

RePack

RDR2

RePack

NEED FOR SPEED™ PAYBACK

4 сезон

9 сезон

Бесстыжие 9 сезон

Все сериалы

все сериалы на PB.wtf

RePack

FAR CRY 5
  
Magnet ссылка

Блэйд 3: Троица / Blade: Trinity (Дэвид С. Гойер) [2004 г., Ужасы, Фантастика, Фэнтези, Боевик, Триллер, Приключения, HDRip-AVC, Дубляж] pb.wtf

Блэйд 3: Троица через торрент pb.wtf

Размер: 2.17 GB | Добавлен: 3 года 4 мес. назад | Торрент скачан:24 раза
Скачать  

14-11-2017 17:18 Блэйд 3: Троица Скачать торрент  

Блэйд 3: Троица /
Blade: Trinity
Год выпуска: 2004
Страна: США
Жанр: Ужасы, Фантастика, Фэнтези, Боевик, Триллер, Приключения
Продолжительность: 01:52:56
Перевод: Дубляж
Субтитры: отсутствуют

Режиссер: Дэвид С. Гойер

Премьера в мире: 7 декабря 2004

rating

В ролях: Уэсли Снайпс, Крис Кристофферсон, Доминик Пёрселл, Джессика Бил, Райан Рейнольдс, Паркер Поузи, Марк Берри, Джон Майкл Хиггинс, Каллум Кит Ренни, Пол Левески

Описание: Фатальные события могут привести к захвату власти в мире вампирами. Блэйд — единственный, кто может предотвратить страшные перемены и воспрепятствовать превращению мира в «Планету вампиров».
Стремясь помешать Блэйду в реализации его плана, верхушка вампиров во главе с Даникой Талос натравливают на него людей. Полиция начинает охоту на того, кого теперь все считают жутким монстром…

Качество: HDRip-AVC
Формат: MKV
Видео кодек: H.264
Аудио кодек: AC3
Видео: AVC/H.264, 1024х432, (2,40:1), ~2361 kbps, 0.223 bit/pixel
Аудио#1: Русский: AC3, 6 ch, 384 kbps - Дубляж
Релиз от: winchester00100010
Общее
Уникальный идентификатор : 205249023587263448466552109938128960730 (0x9A698628AF3767AD8C520ABAAE2BBCDA)
Полное имя : D:\Торрент файлы раздач вместе с фильмами\Blade.Trinity.2004.HDRip-AVC.mkv
Формат : Matroska
Версия формата : Version 2
Размер файла : 2,17 Гбайт
Продолжительность : 1 ч. 52 м.
Общий поток : 2745 Кбит/сек
Дата кодирования : UTC 2017-10-10 00:24:43
Программа кодирования : mkvmerge v7.8.0 ('River Man') 32bit built on Apr 3 2015 12:11:22
Библиотека кодирования : libebml v1.3.1 + libmatroska v1.4.2

Видео
Идентификатор : 1
Формат : AVC
Формат/Информация : Advanced Video Codec
Профиль формата : High@L4.1
Настройки формата : CABAC / 12 Ref Frames
Параметр CABAC формата : Да
Параметр RefFrames формата : 12 кадров
Идентификатор кодека : V_MPEG4/ISO/AVC
Продолжительность : 1 ч. 52 м.
Битрейт : 2361 Кбит/сек
Ширина : 1024 пикселя
Высота : 432 пикселя
Соотношение сторон : 2,40:1
Режим частоты кадров : Постоянный
Частота кадров : 23,976 (24000/1001) кадра/сек
Цветовое пространство : YUV
Субдискретизация насыщенности : 4:2:0
Битовая глубина : 8 бит
Тип развёртки : Прогрессивная
Бит/(Пиксели*Кадры) : 0.223
Размер потока : 1,82 Гбайт (84%)
Библиотека кодирования : x264 core 146 r2538 121396c
Настройки программы : cabac=1 / ref=12 / deblock=1:-3:-3 / analyse=0x3:0x113 / me=umh / subme=11 / psy=1 / psy_rd=1.00:0.00 / mixed_ref=1 / me_range=32 / chroma_me=1 / trellis=2 / 8x8dct=1 / cqm=0 / deadzone=21,11 / fast_pskip=0 / chroma_qp_offset=-2 / threads=12 / lookahead_threads=2 / sliced_threads=0 / nr=0 / decimate=0 / interlaced=0 / bluray_compat=0 / constrained_intra=0 / bframes=10 / b_pyramid=2 / b_adapt=2 / b_bias=0 / direct=3 / weightb=1 / open_gop=0 / weightp=2 / keyint=240 / keyint_min=23 / scenecut=40 / intra_refresh=0 / rc_lookahead=40 / rc=2pass / mbtree=0 / bitrate=2361 / ratetol=1.0 / qcomp=0.60 / qpmin=0 / qpmax=69 / qpstep=4 / cplxblur=20.0 / qblur=0.5 / vbv_maxrate=14000 / vbv_bufsize=14000 / nal_hrd=none / filler=0 / ip_ratio=1.40 / pb_ratio=1.30 / aq=1:1.00
Default : Да
Forced : Нет

Аудио
Идентификатор : 2
Формат : AC-3
Формат/Информация : Audio Coding 3
Идентификатор кодека : A_AC3
Продолжительность : 1 ч. 52 м.
Вид битрейта : Постоянный
Битрейт : 384 Кбит/сек
Каналы : 6 каналов
Расположение каналов : Front: L C R, Side: L R, LFE
Частота : 48,0 КГц
Частота кадров : 31,250 кадров/сек (1536 SPF)
Битовая глубина : 16 бит
Метод сжатия : С потерями
Размер потока : 310 Мбайт (14%)
ServiceKind/String : Complete Main
Default : Да
Forced : Нет

pb.wtf



Скачать Блэйд 3: Троица через торрент https://pic1.kartinco.top/images/11/pikw1.jpg Скачать фильм Блэйд 3: Троица через торрент бесплантно в хорошем качестве Описание: Фатальные события могут привести к захвату власти в мире вампирами. Блэйд — единственный, кто может предотвратить страшные ... 10 10 5
Торрент: Зарегистрирован [2017-12-11 16:26] · скачан: 24 раз
Статус: √ проверено
Размер: 2.17 GB
Как cкачать? Как скачать Блэйд 3: Троица через торрент | UTorrent

% Раздел Тема Автор DL S | L
Фильмы [HD 720p, 1080p] (Хороший звук DUB, MVO) [ 7.75 GB ] Блэйд 3: Троица / Blade: Trinity [2004 BDRip 1080p + Оригинал] Бумер Скачать
1 | 0
Фильмы 2001-2005 [ 1.46 GB ] Блэйд 3: Троица / Blade: Trinity [Режиссерская версия / Unrated] [2004 DVDRip ] Sудья Скачать
1 | 0
Фильмы 2001-2005 [ 2.18 GB ] Блэйд 3: Троица / Blade: Trinity [2004 BDRip] Andruuha Скачать
1 | 0

28-11-2019 20:33  

Отключить всю рекламу на сайте

11-12-2017 16:26 Блэйд 3: Троица Скачать торрент  

Перезалил торрент файлик, так как человек писал вконтакте мне, что
он не может скачать и не качается раздача, перекачайте торрентpb.wtf



    Дорогой пользователь! Огромная просьба, поблагодарите релизера, оцените раздачу и оставьте свои комментарий, если Вы скачали Блэйд 3: Троица через торрент бесплатно! Внесите свою лепту в развитие PiratBit!
    Комментировать посты могут только пользователи прошедшие не сложную регистрацию
    Показать сообщения:    

    Блэйд 3: Троица через торрент
    Скачать бесплатно Блэйд 3: Троица
    Блэйд 3: Троица скачать торрент
    Блэйд 3: Троица смотреть онлайн
    Cкачать фильм Блэйд 3: Троица бесплатно
    Блэйд 3: Троица скачать торрент в хорошем качестве
    Блэйд 3: Троица смотреть онлайн бесплатно в хорошем качестве


    Вы не можете начинать темы
    Вы не можете отвечать на сообщения
    Вы не можете редактировать свои сообщения
    Вы не можете удалять свои сообщения
    Вы не можете голосовать в опросах
    Вы не можете прикреплять файлы к сообщениям
    Вы можете скачивать файлы