2 сезон

iTunes

1 сезон

1

iTunes

iTunes

iTunes

1 сезон

RePack

30

ИГРА 18+

pack

ВАЖНО

!!Акция!!

Alien_RageХит недели

RePack

MK11
pack

Забери бонус

RePack

jed

!!Акция!!

Alien_Rage

RePack

fifa19

RePack

Assassins Creed: Odyssey

RePack

NEED FOR SPEED™ PAYBACK

4 сезон

9 сезон

Бесстыжие 9 сезон

Все сериалы

все сериалы на PB.wtf

RePack

FAR CRY 5
  

Сканнеры / Scanners (Дэвид Кроненберг) [1981, ужасы, фантастика, боевик, триллер, BDRip 1080p by msltel] 2 x DVO, 2 x AVO pb.wtf

Сканнеры через торрент pb.wtf

Размер: 13.77 GB | Добавлен: 2 года 11 мес. назад | Торрент скачан:20 раз
Скачать  

15-11-2017 06:31 Сканнеры Скачать торрент  

Название: Сканнеры
Оригинальное название: Scanners
Год выпуска: 1981
Страна: Канада
Жанр: ужасы, фантастика, боевик, триллер
Продолжительность: 01:43:05
Перевод: профессиональный двухголосый, авторский

Режиссер: Дэвид Кроненберг
В ролях: Дженнифер О’Нил, Стивен Лэк, Патрик МакГуэн, Лоуренс Дэйн, Майкл Айронсайд, Роберт А. Силверман, Ли Брокер, Мавор Мур, Адам Людвиг, Murray Cruchley, Геза Ковач, Сонни Форбс, Жером Тибергьен, Дэнис Лакруа, Луис Дел Гранде, Энтони Шервуд, Энн Энглин, Джок Брэндис, Джек Мессинджер, Виктор Найт, Карен Фуллертон, Стив Майклс, Николас Килбертус, Роланд Нинчери, Кимберли МакКивер, Роберт Бойд, Грэхэм Батчелор, Дин Хагопиан, Алекс Стивенс, Нил Аффлек, Сэм Стоун

О фильме: Они живут среди нас — сканнеры, умеющие читать мозг других и умеющие убивать своим мозгом. Один из сканнеров, Кэмерон Вейл, по просьбе доктора Пола Рута, специалиста по психическим отклонениям, пытается разыскать сканнера Дэррила Ривока, который стоит во главе тайной организации, преследующей цель установить господство сканнеров во всём мире. На помощь Кэмерону приходит Ким Обрист, обладающая подобным же даром управлять чужим разумом...



Качество: BDRip 1080p
Формат: MKV
Видео: MPEG-4 AVC, 15.5 Mбит/с, 1920x1040, 23.976 кадр/с
Аудио 1: русский, AC3, 192 kbps, 2 ch [профессиональный двухголосый, R5]
Аудио 2: русский, AC3, 192 kbps, 2 ch [профессиональный двухголосый, D2Lab]
Аудио 3: русский, DTS, 1509 kbps, 6 ch [авторский, Андрей Гаврилов]
Аудио 4: русский, AC3, 192 kbps, 2 ch [авторский, Алексей Михалёв]
Аудио 5: английский, DTS, 1509 kbps, 6 ch, 48 kHz [оригинал]
Субтитры 1: русские
Субтитры 2: английские
Общее
Уникальный идентификатор : 219261926097621117719911479321324785383 (0xA4F44F9807AAEBCBB862F457E5A98EE7)
Полное имя : D:\Video\Scanners.1981.BDRip.1080p by msltel.mkv
Формат : Matroska
Версия формата : Version 4 / Version 2
Размер файла : 13,8 Гбайт
Продолжительность : 1 ч. 43 м.
Общий поток : 19,1 Мбит/сек
Название фильма : Rip by msltel
Дата кодирования : UTC 2017-11-14 15:04:25
Программа кодирования : mkvmerge v8.2.0 ('World of Adventure') 64bit
Библиотека кодирования : libebml v1.3.1 + libmatroska v1.4.2

Видео
Идентификатор : 1
Формат : AVC
Формат/Информация : Advanced Video Codec
Профиль формата : High@L4.1
Настройки формата : CABAC / 4 Ref Frames
Параметр CABAC формата : Да
Параметр RefFrames формата : 4 кадра
Идентификатор кодека : V_MPEG4/ISO/AVC
Продолжительность : 1 ч. 43 м.
Битрейт : 15,5 Мбит/сек
Ширина : 1920 пикселей
Высота : 1040 пикселей
Соотношение сторон : 1,85:1
Режим частоты кадров : Постоянный
Частота кадров : 23,976 (24000/1001) кадра/сек
Цветовое пространство : YUV
Субдискретизация насыщенности : 4:2:0
Битовая глубина : 8 бит
Тип развёртки : Прогрессивная
Бит/(Пиксели*Кадры) : 0.324
Размер потока : 11,2 Гбайт (81%)
Библиотека кодирования : x264 core 146 r2538 121396c
Настройки программы : cabac=1 / ref=4 / deblock=1:-3:-2 / analyse=0x3:0x113 / me=umh / subme=11 / psy=1 / psy_rd=1.00:0.15 / mixed_ref=1 / me_range=32 / chroma_me=1 / trellis=2 / 8x8dct=1 / cqm=0 / deadzone=21,11 / fast_pskip=0 / chroma_qp_offset=-3 / threads=6 / lookahead_threads=1 / sliced_threads=0 / nr=0 / decimate=1 / interlaced=0 / bluray_compat=0 / constrained_intra=0 / bframes=14 / b_pyramid=2 / b_adapt=2 / b_bias=0 / direct=1 / weightb=1 / open_gop=0 / weightp=2 / keyint=230 / keyint_min=23 / scenecut=40 / intra_refresh=0 / rc_lookahead=40 / rc=crf / mbtree=0 / crf=20.0 / qcomp=0.60 / qpmin=0 / qpmax=69 / qpstep=4 / vbv_maxrate=62500 / vbv_bufsize=78125 / crf_max=0.0 / nal_hrd=none / filler=0 / ip_ratio=1.40 / pb_ratio=1.30 / aq=1:1.00
Язык : English
Default : Да
Forced : Нет

Аудио #1
Идентификатор : 2
Формат : AC-3
Формат/Информация : Audio Coding 3
Идентификатор кодека : A_AC3
Продолжительность : 1 ч. 43 м.
Вид битрейта : Постоянный
Битрейт : 192 Кбит/сек
Каналы : 2 канала
Расположение каналов : Front: L R
Частота : 48,0 КГц
Частота кадров : 31,250 кадров/сек (1536 SPF)
Битовая глубина : 16 бит
Метод сжатия : С потерями
Размер потока : 142 Мбайт (1%)
Заголовок : DVO R5
Язык : Russian
ServiceKind/String : Complete Main
Default : Да
Forced : Нет

Аудио #2
Идентификатор : 3
Формат : AC-3
Формат/Информация : Audio Coding 3
Идентификатор кодека : A_AC3
Продолжительность : 1 ч. 43 м.
Вид битрейта : Постоянный
Битрейт : 192 Кбит/сек
Каналы : 2 канала
Расположение каналов : Front: L R
Частота : 48,0 КГц
Частота кадров : 31,250 кадров/сек (1536 SPF)
Битовая глубина : 16 бит
Метод сжатия : С потерями
Размер потока : 142 Мбайт (1%)
Заголовок : DVO D2Lab
Язык : Russian
ServiceKind/String : Complete Main
Default : Нет
Forced : Нет

Аудио #3
Идентификатор : 4
Формат : DTS
Формат/Информация : Digital Theater Systems
Идентификатор кодека : A_DTS
Продолжительность : 1 ч. 43 м.
Вид битрейта : Постоянный
Битрейт : 1509 Кбит/сек
Каналы : 6 каналов
Расположение каналов : Front: L C R, Side: L R, LFE
Частота : 48,0 КГц
Частота кадров : 93,750 кадра/сек (512 SPF)
Битовая глубина : 16 бит
Метод сжатия : С потерями
Размер потока : 1,09 Гбайт (8%)
Заголовок : Андрей Гаврилов
Язык : Russian
Default : Нет
Forced : Нет

Аудио #4
Идентификатор : 5
Формат : AC-3
Формат/Информация : Audio Coding 3
Идентификатор кодека : A_AC3
Продолжительность : 1 ч. 43 м.
Вид битрейта : Постоянный
Битрейт : 192 Кбит/сек
Каналы : 2 канала
Расположение каналов : Front: L R
Частота : 48,0 КГц
Частота кадров : 31,250 кадров/сек (1536 SPF)
Битовая глубина : 16 бит
Метод сжатия : С потерями
Размер потока : 142 Мбайт (1%)
Заголовок : Алексей Михалёв
Язык : Russian
ServiceKind/String : Complete Main
Default : Нет
Forced : Нет

Аудио #5
Идентификатор : 6
Формат : DTS
Формат/Информация : Digital Theater Systems
Идентификатор кодека : A_DTS
Продолжительность : 1 ч. 43 м.
Вид битрейта : Постоянный
Битрейт : 1509 Кбит/сек
Каналы : 6 каналов
Расположение каналов : Front: L C R, Side: L R, LFE
Частота : 48,0 КГц
Частота кадров : 93,750 кадра/сек (512 SPF)
Битовая глубина : 16 бит
Метод сжатия : С потерями
Размер потока : 1,09 Гбайт (8%)
Заголовок : original
Язык : English
Default : Нет
Forced : Нет

Текст #1
Идентификатор : 7
Формат : UTF-8
Идентификатор кодека : S_TEXT/UTF8
Идентификатор кодека/Информация : UTF-8 Plain Text
Продолжительность : 1 ч. 39 м.
Битрейт : 50 бит/сек
ElementCount : 781
Размер потока : 36,9 Кбайт (0%)
Заголовок : русские
Язык : Russian
Default : Нет
Forced : Нет

Текст #2
Идентификатор : 8
Формат : UTF-8
Идентификатор кодека : S_TEXT/UTF8
Идентификатор кодека/Информация : UTF-8 Plain Text
Продолжительность : 1 ч. 36 м.
Битрейт : 37 бит/сек
ElementCount : 784
Размер потока : 26,3 Кбайт (0%)
Заголовок : английские
Язык : English
Default : Нет
Forced : Нет
pb.wtf



Скачать Сканнеры через торрент http://i069.radikal.ru/1711/b3/df85ecf1373c.jpg Скачать фильм Сканнеры через торрент бесплантно в хорошем качестве О фильме: Они живут среди нас — сканнеры, умеющие читать мозг других и умеющие убивать своим мозгом. Один из сканнеров, Кэмерон Вейл, по ... 8.2 10 5
Info! Золотая раздача, скачанное не засчитывается.
Торрент: Зарегистрирован [2017-11-15 06:31] · скачан: 20 раз
Статус: √ проверено
Размер: 13.77 GB
Как cкачать? Как скачать Сканнеры через торрент | qTorrent

% Раздел Тема Автор DL S | L
Фильмы [HD 720p, 1080p] (Хороший звук DUB, MVO) [ 5.55 GB ] Сканнеры / Scanners [1981 BDRip 720p by msltel] 2 x DVO 2 x AVO msltel Скачать
1 | 0

28-11-2019 20:33  

Отключить всю рекламу на сайте

15-11-2017 11:08 Сканнеры Скачать торрент  

классный фильм! спасибо! есть ещё 2 часть и 3 даже(но 3 очень трудно найти)!pb.wtf



    Дорогой пользователь! Огромная просьба, поблагодарите релизера, оцените раздачу и оставьте свои комментарий, если Вы скачали Сканнеры через торрент бесплатно! Внесите свою лепту в развитие PiratBit!
    Комментировать посты могут только пользователи прошедшие не сложную регистрацию
    Показать сообщения:    

    Сканнеры через торрент
    Скачать бесплатно Сканнеры
    Сканнеры скачать торрент
    Сканнеры смотреть онлайн
    Cкачать фильм Сканнеры бесплатно
    Сканнеры скачать торрент в хорошем качестве
    Сканнеры смотреть онлайн бесплатно в хорошем качестве


    Вы не можете начинать темы
    Вы не можете отвечать на сообщения
    Вы не можете редактировать свои сообщения
    Вы не можете удалять свои сообщения
    Вы не можете голосовать в опросах
    Вы не можете прикреплять файлы к сообщениям
    Вы можете скачивать файлы