Ссылка на приватное зеркало нашего сайта всего за 1$. Внимание количество ограничено!!!

2 сезон

iTunes

1 сезон

1

iTunes

iTunes

iTunes

1 сезон

RePack

30

ИГРА 18+

pack

ВАЖНО

!!Акция!!

Alien_RageХит недели

RePack

MK11
pack

Забери бонус

RePack

jed

!!Акция!!

Alien_Rage

RePack

fifa19

RePack

Assassins Creed: Odyssey

RePack

NEED FOR SPEED™ PAYBACK

4 сезон

9 сезон

Бесстыжие 9 сезон

Все сериалы

все сериалы на PB.wtf

RePack

FAR CRY 5
  

Хэллоуин / Halloween (Джон Карпентер) [1978 г., Ужасы, Триллер, BDRip 720p] MVO [Лицензия] pb.wtf

Хэллоуин через торрент pb.wtf

Размер: 4.33 GB | Добавлен: 2 года 7 мес. назад | Торрент скачан:44 раза
Скачать  

15-11-2017 12:48 Хэллоуин Скачать торрент  

Хэллоуин / HalloweenГод выпуска: 1978
Страна: США
Жанр: Ужасы, Триллер
Продолжительность: 01:30:56
Перевод: Профессиональный (многоголосый закадровый) Лицензия
Субтитры: отсутствуют

Режиссер: Джон Карпентер

Премьера в мире: 25 октября 1978

rating

В ролях: Дональд Плезенс, Джейми Ли Кёртис, Нэнси Кайс, П.Дж. Соулз, Чарльз Сайферс, Кайл Ричардс и др.

Описание: Убийца-психопат Майкл Майерс, будучи ребенком, совершил убийство собственной сестры в Хэллоуин — День Всех Святых.
15 лет спустя маньяк-убийца снова взялся за старое и терроризирует небольшой городок. Он сбежал из приюта для психически ненормальных, чтобы снова наносить свои смертельные удары в Хэллоуин.

Качество: BDRip 720p
Формат: MKV
Видео кодек: H.264
Аудио кодек: AC3
Видео: AVC/H.264, 1280х544 (2,35:1), ~6373 kbps, 0.382 bit/pixel
Аудио#1: Русский: AC3, 6 ch, 448 kbps - Профессиональный (многоголосый закадровый) Лицензия
Релиз от: winchester00100010
Видео
Идентификатор : 1
Формат : AVC
Формат/Информация : Advanced Video Codec
Профиль формата : High@L4.1
Настройки формата : CABAC / 11 Ref Frames
Параметр CABAC формата : Да
Параметр RefFrames формата : 11 кадров
Идентификатор кодека : V_MPEG4/ISO/AVC
Продолжительность : 1 ч. 30 м.
Битрейт : 6373 Кбит/сек
Ширина : 1280 пикселей
Высота : 544 пикселя
Соотношение сторон : 2,35:1
Режим частоты кадров : Постоянный
Частота кадров : 23,976 (24000/1001) кадра/сек
Цветовое пространство : YUV
Субдискретизация насыщенности : 4:2:0
Битовая глубина : 8 бит
Тип развёртки : Прогрессивная
Бит/(Пиксели*Кадры) : 0.382
Размер потока : 3,96 Гбайт (91%)
Библиотека кодирования : x264 core 146 r2538 121396c
Настройки программы : cabac=1 / ref=11 / deblock=1:-3:-3 / analyse=0x3:0x113 / me=umh / subme=9 / psy=1 / psy_rd=1.00:0.00 / mixed_ref=1 / me_range=24 / chroma_me=1 / trellis=2 / 8x8dct=1 / cqm=0 / deadzone=21,11 / fast_pskip=0 / chroma_qp_offset=-2 / threads=12 / lookahead_threads=2 / sliced_threads=0 / nr=0 / decimate=0 / interlaced=0 / bluray_compat=0 / constrained_intra=0 / bframes=6 / b_pyramid=2 / b_adapt=2 / b_bias=0 / direct=3 / weightb=1 / open_gop=0 / weightp=2 / keyint=240 / keyint_min=23 / scenecut=40 / intra_refresh=0 / rc=2pass / mbtree=0 / bitrate=6373 / ratetol=1.0 / qcomp=0.60 / qpmin=0 / qpmax=69 / qpstep=4 / cplxblur=20.0 / qblur=0.5 / ip_ratio=1.40 / pb_ratio=1.30 / aq=1:1.00
Default : Да
Forced : Нет

Аудио
Идентификатор : 2
Формат : AC-3
Формат/Информация : Audio Coding 3
Идентификатор кодека : A_AC3
Продолжительность : 1 ч. 30 м.
Вид битрейта : Постоянный
Битрейт : 448 Кбит/сек
Каналы : 6 каналов
Расположение каналов : Front: L C R, Side: L R, LFE
Частота : 48,0 КГц
Частота кадров : 31,250 кадров/сек (1536 SPF)
Битовая глубина : 16 бит
Метод сжатия : С потерями
Размер потока : 291 Мбайт (7%)
ServiceKind/String : Complete Main
Default : Да
Forced : Нет

СКАЧАЛ САМ?, ДАЙ СКАЧАТЬ ДРУГИМ!!!
УБЕДИТЕЛЬНАЯ ПРОСЬБА, НЕ СВАЛИВАЙТЕ С РАЗДАЧИ!!!
pb.wtf



Скачать Хэллоуин через торрент http://pic1.kartinco.top/images/11/4p1e6.jpg Скачать фильм Хэллоуин через торрент бесплантно в хорошем качестве Описание: Убийца-психопат Майкл Майерс, будучи ребенком, совершил убийство собственной сестры в Хэллоуин — День Всех Святых.15 лет спустя ... 8 10 8
Торрент: Зарегистрирован [2018-02-28 10:39] · скачан: 44 раз
Статус: √ проверено
Размер: 4.33 GB
Как cкачать? Как скачать Хэллоуин через торрент | qTorrent

% Раздел Тема Автор DL S | L
Ultra HD (UHD: 2K, 4K, 8K) — видео сверхвысокой чёткости [ 14.95 GB ] Хэллоуин Хьюби / Hubie Halloween [2020 UHD WEB-DL 2160p ] DUB [Пифагор / Netflix] bober100 Скачать
8 | 0
Фильмы (WEB-DL 720p, 1080p) [ 5.25 GB ] Хэллоуин Хьюби / Hubie Halloween [2020 WEB-DL-HEVC 1080p] DUB [Пифагор / Netflix] bober100 Скачать
22 | 1
Фильмы (WEB-DL 720p, 1080p) [ 5.84 GB ] Хэллоуин Хьюби / Hubie Halloween [2020 WEB-DL 1080p] DUB [Пифагор / Netflix] bober100 Скачать
20 | 0
Фильмы 2019-2020 [DVDrip, WEB-DLRip, HDrip] (DUB, MVO) [ 1.44 GB ] Хэллоуин Хьюби / Hubie Halloween [2020 WEB-DLRip-AVC] DUB [Пифагор / Netflix] bober100 Скачать
13 | 0
Фильмы 2019-2020 [DVDrip, WEB-DLRip, HDrip] (DUB, MVO) [ 1.46 GB ] Хэллоуин Хьюби / Hubie Halloween [2020 WEB-DLRip] DUB [Пифагор / Netflix] bober100 Скачать
22 | 0
Фильмы (WEB-DL 720p, 1080p) [ 3.78 GB ] Хэллоуин Хьюби / Hubie Halloween [2020 WEB-DL 720p] DUB [Пифагор / Netflix] bober100 Скачать
129 | 7
T Фильмы (мультфильмы) cо спонсором показа (Новинки AVI/MKV) [ 2.38 GB ] Сборник хэллоуинских короткометражных фильмов от MVB Films: Часть 2 / MVB Films Halloween Horror Stories Vol II [2018 WEB-DL 720p] MVO ["Синема УС"] bober100 Скачать
1 | 0


Последний раз редактировалось: winchester00100010 (2018-02-28 10:39), всего редактировалось 1 раз

28-11-2019 20:33  

Отключить всю рекламу на сайте

    Дорогой пользователь! Огромная просьба, поблагодарите релизера, оцените раздачу и оставьте свои комментарий, если Вы скачали Хэллоуин через торрент бесплатно! Внесите свою лепту в развитие PiratBit!
    Комментировать посты могут только пользователи прошедшие не сложную регистрацию
    Показать сообщения:    

    Хэллоуин через торрент
    Скачать бесплатно Хэллоуин
    Хэллоуин скачать торрент
    Хэллоуин смотреть онлайн
    Cкачать фильм Хэллоуин бесплатно
    Хэллоуин скачать торрент в хорошем качестве
    Хэллоуин смотреть онлайн бесплатно в хорошем качестве


    Вы не можете начинать темы
    Вы не можете отвечать на сообщения
    Вы не можете редактировать свои сообщения
    Вы не можете удалять свои сообщения
    Вы не можете голосовать в опросах
    Вы не можете прикреплять файлы к сообщениям
    Вы можете скачивать файлы