1 сезон

1 сезон

iTunes

1

КиноПоиск HD

Кинопоиск HD

iTunes

13

1 сезон

RePack

30

Новинка

ВАЖНО

ИГРА 18+

pack

RePack

MK11
pack

Легкие деньги

RePack

jed

RePack

fifa19

RePack

RDR2

RePack

NEED FOR SPEED™ PAYBACK

4 сезон

9 сезон

Бесстыжие 9 сезон

Все сериалы

все сериалы на PB.wtf

RePack

FAR CRY 5
  
Magnet ссылка

Профессионалы / San Antonio (Фредерик Обуртин) [2004 г., Боевик, комедия, DVDRip-AVC, Дубляж] от ExKinoRay pb.wtf

Профессионалы через торрент pb.wtf

Размер: 1.97 GB | Добавлен: 3 года 5 мес. назад | Торрент скачан:20 раз
Скачать  

15-11-2017 15:30 Профессионалы Скачать торрент  

Профессионалы / San Antonio
Год выпуска: 2004
Страна: Франция, Италия, Великобритания
Жанр: Боевик, комедия
Продолжительность: 01:31:06
Перевод: Дубляж

Режиссер: Фредерик Обуртин

Бюджет: €30 000 000
Премьера в мире: 21 июля 2004

rating

В ролях: Жерар Ланвен, Жерар Депардье, Люси Харрисон, Патрик Медиони, Валерия Голино, Марк Фор, Мишель Бернье, Билл Барклай, Ник Хоббс

Описание: Отважный комиссар французской полиции Антуан Сан-Антонио и его напарник Берирье, находясь в Великобритании, обеспечивали неприкосновенность французского посла, но не смогли уберечь его от террористов-похитителей, укравших посла прямо из Британского дворца. Причём Сан-Антонио невольно сам помог скрыться террористке. За это шеф уволил его с работы.
Но к Антуану явился министр внутренних дел. Он сообщил, что Сан-Антонио предлагается занять новую должность в особом отделе. А вызвано это назначение тем, что пропал президент республики, и на его поиски спецслужбам выделили всего 48 часов…

Качество: DVDRip-AVC
Формат: MKV
Видео кодек: MPEG4
Аудио кодек: AC3
Видео: MPEG-4 AVC, 2200 Кбит/с, 716x438@1018x438, 25 кадров/сек
Аудио#1: Русский (AC3, 6 ch, 448 Кбит/с, 48 КГц)
Аудио#2: Французский (AC3, 6 ch, 448 Кбит/с, 48 КГц)
Релиз от:




raw [info]: 716x438p 64:45 @ 25/1 fps (cfr)
x264 [info]: using SAR=64/45
x264 [info]: using cpu capabilities: MMX2 SSE2Fast LZCNT
x264 [info]: profile High, level 4.1
x264 [info]: frame I:964 Avg QP:15.23 size: 59067
x264 [info]: frame P:30338 Avg QP:17.86 size: 23192
x264 [info]: frame B:105372 Avg QP:20.12 size: 7046
x264 [info]: consecutive B-frames: 2.1% 3.0% 12.1% 15.2% 8.1% 58.5% 0.6% 0.2% 0.1% 0.0% 0.1% 0.0% 0.0% 0.0% 0.0% 0.0% 0.0%
------
Общее
Уникальный идентификатор : 207661597506867670827725808320116267904 (0x9C3A2B3C9F5F15A788679C40D1599B80)
Полное имя : D:\ExKinoRay\San.Antonio.2004.DVDRip-AVC.ExKinoRay.mkv
Формат : Matroska
Версия формата : Version 2
Размер файла : 1,97 Гбайт
Продолжительность : 1 ч. 31 м.
Общий поток : 3097 Кбит/сек
Дата кодирования : UTC 2017-11-15 12:59:17
Программа кодирования : mkvmerge v7.8.0 ('River Man') 32bit built on Apr 3 2015 12:11:22
Библиотека кодирования : libebml v1.3.1 + libmatroska v1.4.2

Видео
Идентификатор : 1
Формат : AVC
Формат/Информация : Advanced Video Codec
Профиль формата : High@L4.1
Параметр CABAC формата : Да
Параметр ReFrames формата : 14 кадров
Идентификатор кодека : V_MPEG4/ISO/AVC
Продолжительность : 1 ч. 31 м.
Битрейт : 2200 Кбит/сек
Ширина : 716 пикселей
Высота : 438 пикселей
Соотношение сторон : 2,35:1
Соотношение сторон в оригинале : 2,35:1
Режим частоты кадров : Постоянный
Частота кадров : 25,000 кадров/сек
Цветовое пространство : YUV
Субдискретизация насыщенности : 4:2:0
Битовая глубина : 8 бит
Тип развёртки : Прогрессивная
Бит/(Пиксели*Кадры) : 0.281
Размер потока : 1,36 Гбайт (69%)
Библиотека кодирования : x264 core 148 r2638 7599210
Настройки программы : cabac=1 / ref=14 / deblock=1:-2:-2 / analyse=0x3:0x133 / me=umh / subme=10 / psy=1 / psy_rd=1.05:0.15 / mixed_ref=1 / me_range=32 / chroma_me=1 / trellis=2 / 8x8dct=1 / cqm=0 / deadzone=21,11 / fast_pskip=0 / chroma_qp_offset=-3 / threads=4 / lookahead_threads=1 / sliced_threads=0 / nr=0 / decimate=0 / interlaced=0 / bluray_compat=0 / constrained_intra=0 / bframes=16 / b_pyramid=2 / b_adapt=2 / b_bias=0 / direct=3 / weightb=1 / open_gop=0 / weightp=2 / keyint=250 / keyint_min=25 / scenecut=40 / intra_refresh=0 / rc=2pass / mbtree=0 / bitrate=2200 / ratetol=1.0 / qcomp=0.60 / qpmin=0 / qpmax=69 / qpstep=4 / cplxblur=20.0 / qblur=0.5 / ip_ratio=1.40 / pb_ratio=1.30 / aq=1:1.00
Язык : English
Default : Да
Forced : Нет
Цветовой диапазон : Limited
Основные цвета : BT.601 NTSC
Характеристики трансфера : BT.601
Коэффициенты матрицы : BT.601

Аудио #1
Идентификатор : 2
Формат : AC-3
Формат/Информация : Audio Coding 3
Расширение режима : CM (complete main)
Параметр Endianness формата : Big
Идентификатор кодека : A_AC3
Продолжительность : 1 ч. 31 м.
Вид битрейта : Постоянный
Битрейт : 448 Кбит/сек
Каналы : 6 каналов
Расположение каналов : Front: L C R, Side: L R, LFE
Частота : 48,0 КГц
Частота кадров : 31,250 кадров/сек (1536 spf)
Метод сжатия : С потерями
Размер потока : 292 Мбайт (14%)
Язык : Russian
Default : Да
Forced : Нет

Аудио #2
Идентификатор : 3
Формат : AC-3
Формат/Информация : Audio Coding 3
Расширение режима : CM (complete main)
Параметр Endianness формата : Big
Идентификатор кодека : A_AC3
Продолжительность : 1 ч. 31 м.
Вид битрейта : Постоянный
Битрейт : 448 Кбит/сек
Каналы : 6 каналов
Расположение каналов : Front: L C R, Side: L R, LFE
Частота : 48,0 КГц
Частота кадров : 31,250 кадров/сек (1536 spf)
Метод сжатия : С потерями
Размер потока : 292 Мбайт (14%)
Язык : French
Default : Нет
Forced : Нет

pb.wtf



Скачать Профессионалы через торрент http://s012.radikal.ru/i319/1711/2b/2e65550d2512.jpg Скачать фильм Профессионалы через торрент бесплантно в хорошем качестве Описание: Отважный комиссар французской полиции Антуан Сан-Антонио и его напарник Берирье, находясь в Великобритании, обеспечивали ... 10 10 2
Info! Золотая раздача, скачанное не засчитывается.
Торрент: Зарегистрирован [2017-11-15 15:30] · скачан: 20 раз
Статус: √ проверено
Размер: 1.97 GB
Как cкачать? Как скачать Профессионалы через торрент | UTorrent

28-11-2019 20:33  

Отключить всю рекламу на сайте

15-11-2017 16:32 Профессионалы Скачать торрент  

Топик был перенесен из форума Оформление раздач (Кино, Видео и ТВ) в форум Фильмы 2001-2005


schultzpb.wtf



    Дорогой пользователь! Огромная просьба, поблагодарите релизера, оцените раздачу и оставьте свои комментарий, если Вы скачали Профессионалы через торрент бесплатно! Внесите свою лепту в развитие PiratBit!
    Комментировать посты могут только пользователи прошедшие не сложную регистрацию
    Показать сообщения:    

    Профессионалы через торрент
    Скачать бесплатно Профессионалы
    Профессионалы скачать торрент
    Профессионалы смотреть онлайн
    Cкачать фильм Профессионалы бесплатно
    Профессионалы скачать торрент в хорошем качестве
    Профессионалы смотреть онлайн бесплатно в хорошем качестве


    Вы не можете начинать темы
    Вы не можете отвечать на сообщения
    Вы не можете редактировать свои сообщения
    Вы не можете удалять свои сообщения
    Вы не можете голосовать в опросах
    Вы не можете прикреплять файлы к сообщениям
    Вы можете скачивать файлы