Ссылка на приватное зеркало нашего сайта всего за 1$. Внимание количество ограничено!!!

2 сезон

iTunes

1 сезон

1

2 сезон

2 сезон

iTunes

1 сезон

RePack

30

Новинка

ВАЖНО

ИГРА 18+

pack

RePack

MK11
pack

Забери бонус

RePack

jed

!!Акция!!

Alien_Rage

RePack

fifa19

RePack

Assassins Creed: Odyssey

RePack

NEED FOR SPEED™ PAYBACK

4 сезон

9 сезон

Бесстыжие 9 сезон

Все сериалы

все сериалы на PB.wtf

RePack

FAR CRY 5
  

Доблесть / Valor / Сезон: 1 / Серии: 1-13 из 13 (Майкл М. Робин / Michael M. Robin) [2017, Драма, WEB-DL 1080p] [MVO] (NewStudio) pb.wtf

Доблесть через торрент pb.wtf

Размер: 22.7 GB | Добавлен: 2 года назад | Торрент скачан:15 раз
Скачать  

15-11-2017 16:03 Доблесть Скачать торрент  

Доблесть / Valor Год выпуска: 2017
Страна: США
Жанр: Драма
Продолжительность: ~ 00:42:00
Перевод: Профессиональный (многоголосый закадровый) [NewStudio]

Режиссёр: Майкл М. Робин / Michael M. Robin

В ролях: Кеннет Израэль, Аксель Арзола, Морганна Бриджерс, Брайан Алан Крэйг, Кристина Очоа, Джастин Давид, Пол Винсент Фриман, Кертис Гаммэдж, Джонатан Селларс, Джейсон Вэйл, Уилльям Уокер

Описание: Эта история о группе пилотов, управляющих вертолётами. Эти парни и девушки прошли подготовку, прежде, чем приступили к полётам. Теперь они работают на правительство, выполняя поручения различной сложности. Порою им приходится нелегко, ведь военные каждый день подвергают свою жизнь опасности, но даже неудачи не заставляют их пасовать перед трудностями, а наоборот, мотивируют на новые подвиги и достижения.

rating

Качество: WEB-DL 1080p
Контейнер: MKV
Видео: MPEG-4 AVC, 5065 kb/s, 1920x1080, 23,976 fps
Аудио 1: 48,0 KHz, AC3, 6 ch, 384 Кбит/с - [Rus]
Аудио 2: 48,0 KHz, AC3, 6 ch, 384 Кбит/с - [Eng]
Субтитры: отсутствуют
General
Unique ID : 254594986747002269636729268495133360457 (0xBF8935FB5C0B4CD48A5D93F6A2DEC149)
Complete name : E:\Доблесть (Season 01) 1080\Valor.s01e01.WEBDL.1080p.NewStudio.TV.mkv
Format : Matroska
Format version : Version 4 / Version 2
File size : 1.77 GiB
Duration : 42 min 34 s
Overall bit rate : 5 951 kb/s
Encoded date : UTC 2017-10-17 22:03:03
Writing application : mkvmerge v8.2.0 ('World of Adventure') 32bit
Writing library : libebml v1.3.1 + libmatroska v1.4.2

Video
ID : 1
Format : AVC
Format/Info : Advanced Video Codec
Format profile : High@L4
Format settings : CABAC / 4 Ref Frames
Format settings, CABAC : Yes
Format settings, RefFrames : 4 frames
Codec ID : V_MPEG4/ISO/AVC
Duration : 42 min 34 s
Bit rate : 5 065 kb/s
Width : 1 920 pixels
Height : 1 080 pixels
Display aspect ratio : 16:9
Frame rate mode : Constant
Frame rate : 23.976 (24000/1001) FPS
Color space : YUV
Chroma subsampling : 4:2:0
Bit depth : 8 bits
Scan type : Progressive
Bits/(Pixel*Frame) : 0.102
Stream size : 1.51 GiB (85%)
Language : English
Default : Yes
Forced : No
Color range : Limited
Color primaries : BT.709
Transfer characteristics : BT.709
Matrix coefficients : BT.709

Audio #1
ID : 2
Format : AC-3
Format/Info : Audio Coding 3
Format settings, Endianness : Big
Codec ID : A_AC3
Duration : 42 min 34 s
Bit rate mode : Constant
Bit rate : 384 kb/s
Channel(s) : 6 channels
Channel positions : Front: L C R, Side: L R, LFE
Sampling rate : 48.0 kHz
Frame rate : 31.250 FPS (1536 SPF)
Bit depth : 16 bits
Compression mode : Lossy
Stream size : 117 MiB (6%)
Title : NewStudio.TV
Language : Russian
Service kind : Complete Main
Default : Yes
Forced : No

Audio #2
ID : 3
Format : AC-3
Format/Info : Audio Coding 3
Format settings, Endianness : Big
Codec ID : A_AC3
Duration : 42 min 34 s
Bit rate mode : Constant
Bit rate : 384 kb/s
Channel(s) : 6 channels
Channel positions : Front: L C R, Side: L R, LFE
Sampling rate : 48.0 kHz
Frame rate : 31.250 FPS (1536 SPF)
Bit depth : 16 bits
Compression mode : Lossy
Stream size : 117 MiB (6%)
Language : English
Service kind : Complete Main
Default : No
Forced : No
Когда раздача ведётся путём добавления новых серий, при каждом добавлении создётся новый торрент. Чтобы начать докачку новой серии, пользователям необходимо сделать следующее:
(1) остановить скачивание,
(2) удалить старый торрент у себя из клиента (старые серии удалять не надо),
(3) скачать новый торрент и запустить его у себя в клиенте вместо старого, при этом указать клиенту путь в старую папку, куда и должно происходить скачивание новых серий.
Ваш клиент при этом должен произвести хеширование (проверку) старой папки (если не производит сам - помогите ему сделать это), и будет докачивать только те серии, которых у вас ещё нет. Старые серии при этом не удаляются, а продолжают раздаваться!
Eсли вы уже удалили старые серии, то предотвратить повторную закачку старых серий можно, отжав галочку в соответсвующих местах при запуске нового торрента. По возможности, желательно не удалять старые серии как можно дольше, чтобы релизёр не столько продолжал раздавать старые серии, а смог сконцентрироваться на новых.
скриншот  скриншот  скриншот  
pb.wtf



Скачать Доблесть через торрент http://i95.fastpic.ru/big/2017/1012/f6/8bdde1374a63cb129ae0144afb7cabf6.png Скачать фильм Доблесть через торрент бесплантно в хорошем качестве Описание: Эта история о группе пилотов, управляющих вертолётами. Эти парни и девушки прошли подготовку, прежде, чем приступили к полётам. ... 7 10 6
Торрент: Зарегистрирован [2018-11-07 19:27] · скачан: 15 раз
Статус: √ проверено
Размер: 22.7 GB
Как cкачать? Как скачать Доблесть через торрент | qTorrent



Последний раз редактировалось: killermax2013 (2018-11-07 19:27), всего редактировалось 2 раз(а)

28-11-2019 20:33  

Отключить всю рекламу на сайте

09-12-2017 15:30 Доблесть Скачать торрент  

+6-8pb.wtf



16-01-2018 16:15 Доблесть Скачать торрент  

+9-10pb.wtf



    Дорогой пользователь! Огромная просьба, поблагодарите релизера, оцените раздачу и оставьте свои комментарий, если Вы скачали Доблесть через торрент бесплатно! Внесите свою лепту в развитие PiratBit!
    Комментировать посты могут только пользователи прошедшие не сложную регистрацию
    Показать сообщения:    

    Доблесть через торрент
    Скачать бесплатно Доблесть
    Доблесть скачать торрент
    Доблесть смотреть онлайн
    Cкачать фильм Доблесть бесплатно
    Доблесть скачать торрент в хорошем качестве
    Доблесть смотреть онлайн бесплатно в хорошем качестве


    Вы не можете начинать темы
    Вы не можете отвечать на сообщения
    Вы не можете редактировать свои сообщения
    Вы не можете удалять свои сообщения
    Вы не можете голосовать в опросах
    Вы не можете прикреплять файлы к сообщениям
    Вы можете скачивать файлы