2 сезон

iTunes

MVO

1

2 сезон

iTunes

iTunes

1 сезон

RePack

30

Новинка

ВАЖНО

ИГРА 18+

pack

RePack

MK11
pack

Легкие деньги

RePack

jed

RePack

fifa19

RePack

RDR2

RePack

NEED FOR SPEED™ PAYBACK

4 сезон

9 сезон

Бесстыжие 9 сезон

Все сериалы

все сериалы на PB.wtf

RePack

FAR CRY 5

Anonymous, доброе утро, мы не успеваем собрать деньги на оплату серверов за декабрь и январь, помогите нам пожалуйста в это трудное время. В качестве благодарности мы отключим Вам всю рекламу на сайте (укажите свой ник в строку Ваше имя)!

×
  
Magnet ссылка

Стрэттон: Первое задание / Stratton (Саймон Уэст) [2017, Боевик, триллер, HDRip] MVO ["Синема УС"] - ExKinoRay pb.wtf

Стрэттон: Первое задание через торрент pb.wtf

Размер: 1.37 GB | Добавлен: 3 года 2 мес. назад | Торрент скачан:390 раз
Скачать  

16-11-2017 00:34 Стрэттон: Первое задание Скачать торрент  

Информация о фильме
Название: Стрэттон: Первое задание
Оригинальное название: Stratton
Год выпуска: 2017
Жанр: Боевик, триллер
Страна: Великобритания
Студия: Atomic Arts, GFM films, SquareOne Entertainment, Stratton Film Productions, Twickenham Film Studios
Продолжительность: 01:34:28
Перевод: Любительский, многоголосый (Синема УС)
Режиссер: Саймон Уэст
В ролях: Джемма Чан, Тайлер Хэклин, Том Фелтон, Конни Нильсен, Доминик Купер, Остин Стоуэлл, Томас Кречман, Дерек Джекоби, Игал Наор, Ли Николас Харрис

Описание: Коммандос спецподразделения вооруженных сил Великобритании, Джон Стрэттон, вступает в схватку с группой международных террористов. Их цель — осуществить теракт в Лондоне при помощи современного биологического оружия. Стрэттону придется действовать крайне решительно, иначе можно просто не успеть предотвратить трагедию.


rating

Файл
Формат: AVI
Качество: HDRip
Видео: 720х304 (2.35:1), 23.976 fps, XviD, ~1623 Kbps, 0.309 bits/pixel
Аудио: 48 kHz, AC3 Dolby Digital, 3/2 (L,C,R,l,r) + LFE ch, ~448 kbps - Rus
Субтитры: Русские (Forced)

Без рекламы.
General
Complete name : D:\Stratton.2017.HDRip.ExKinoRay\Stratton.2017.HDRip.ExKinoRay.avi
Format : AVI
Format/Info : Audio Video Interleave
File size : 1.37 GiB
Duration : 1 h 34 min
Overall bit rate : 2 080 kb/s
Writing application : VirtualDubMod 1.5.10.3 | www.virtualdub-fr.org || (build 2550/release)
Writing library : VirtualDubMod build 2550/release

Video
ID : 0
Format : MPEG-4 Visual
Format profile : Advanced Simple@L5
Format settings, BVOP : 1
Format settings, QPel : No
Format settings, GMC : No warppoints
Format settings, Matrix : Custom
Codec ID : XVID
Codec ID/Hint : XviD
Duration : 1 h 34 min
Bit rate : 1 623 kb/s
Width : 720 pixels
Height : 304 pixels
Display aspect ratio : 2.35:1
Frame rate : 23.976 (23976/1000) FPS
Color space : YUV
Chroma subsampling : 4:2:0
Bit depth : 8 bits
Scan type : Progressive
Compression mode : Lossy
Bits/(Pixel*Frame) : 0.309
Stream size : 1.07 GiB (78%)
Writing library : XviD 73

Audio
ID : 1
Format : AC-3
Format/Info : Audio Coding 3
Mode extension : CM (complete main)
Format settings, Endianness : Big
Codec ID : 2000
Duration : 1 h 34 min
Bit rate mode : Constant
Bit rate : 448 kb/s
Channel(s) : 6 channels
Channel positions : Front: L C R, Side: L R, LFE
Sampling rate : 48.0 kHz
Frame rate : 31.250 FPS (1536 spf)
Compression mode : Lossy
Stream size : 303 MiB (22%)
Alignment : Split accross interleaves
Interleave, duration : 42 ms (1.00 video frame)
Interleave, preload duration : 500 ms
Релиз от:

Автор релиза: pb.wtf



Скачать Стрэттон: Первое задание через торрент http://img10.lostpic.net/2017/08/08/7e4ff36509f0de3618b99acb118c333f.jpg Скачать фильм Стрэттон: Первое задание через торрент бесплантно в хорошем качестве Описание: Коммандос спецподразделения вооруженных сил Великобритании, Джон Стрэттон, вступает в схватку с группой международных ... 7.3 10 10
Info! Золотая раздача, скачанное не засчитывается.
Торрент: Зарегистрирован [2017-11-16 00:34] · скачан: 390 раз
Статус: T временная
Размер: 1.37 GB
Как cкачать? Как скачать Стрэттон: Первое задание через торрент | UTorrent

% Раздел Тема Автор DL S | L
T Фильмы 2017 [DVDrip, WEB-DLRip, HDrip] (DUB, MVO) [ 2.03 GB ] Стрэттон: Первое задание / Stratton [2017 HDRip-AVC] MVO ["Синема УС"] - ExKinoRay Enigma2010 Скачать
1 | 0

28-11-2019 20:33  

Отключить всю рекламу на сайте

16-11-2017 10:24 Стрэттон: Первое задание Скачать торрент  

Ну и как? Стоит смотреть этот Страпон?pb.wtf



16-11-2017 12:07 Стрэттон: Первое задание Скачать торрент  

dantesparda писал(а):

Ну и как? Стоит смотреть этот Страпон?

Походу ты уже и ответил на свой вопрос. pb.wtf



16-11-2017 20:02 Стрэттон: Первое задание Скачать торрент  

meridianov, А шутки у тебя смешные... Прямо как у клоуна))))pb.wtf



    Дорогой пользователь! Огромная просьба, поблагодарите релизера, оцените раздачу и оставьте свои комментарий, если Вы скачали Стрэттон: Первое задание через торрент бесплатно! Внесите свою лепту в развитие PiratBit!
    Комментировать посты могут только пользователи прошедшие не сложную регистрацию
    Показать сообщения:    

    Стрэттон: Первое задание через торрент
    Скачать бесплатно Стрэттон: Первое задание
    Стрэттон: Первое задание скачать торрент
    Стрэттон: Первое задание смотреть онлайн
    Cкачать фильм Стрэттон: Первое задание бесплатно
    Стрэттон: Первое задание скачать торрент в хорошем качестве
    Стрэттон: Первое задание смотреть онлайн бесплатно в хорошем качестве


    Вы не можете начинать темы
    Вы не можете отвечать на сообщения
    Вы не можете редактировать свои сообщения
    Вы не можете удалять свои сообщения
    Вы не можете голосовать в опросах
    Вы не можете прикреплять файлы к сообщениям
    Вы можете скачивать файлы