Всегда рабочее зеркало без VPN и Proxy просто перед .vidak.icu напиши любое слово или цифру, Пример http://2njj.vidak.icu

MVO

2 сезон

2 сезон

1

1 сезон

iTunes

2 сезон

13

1 сезон

Распродажа

pack

Рекомендуем

Пиратка

30

ВАЖНО

RePack

MK11

RePack

jed

RePack

fifa19

RePack

RDR2

RePack

NEED FOR SPEED™ PAYBACK

Кинопоиск HD

6 сезон

 Острые козырьки 6 сезон

Все сериалы

все сериалы на PB.wtf

RePack

FAR CRY 5

Anonymous, нам критически не хватает 5601 руб. на оплату серверов и переферии за Апрель, помоги нам пожалуйста, вся надежда только на тебя. В благодарность мы отключим тебе всю рекламу на сайте!

×
  
Magnet ссылка

Имитатор / Copycat (Джон Эмиел) [1995, триллер, драма, детектив, BDRip 1080p by msltel] 2 x MVO, 3 x AVO pb.wtf

Имитатор через торрент pb.wtf

Размер: 14.47 GB | Добавлен: 4 года 6 мес. назад | Торрент скачан:37 раз
Смотреть онлайн Имитатор | Скачать    Ребята, помогите собрать деньги на оплату серверов!!!

16-11-2017 06:33 Имитатор Скачать торрент  

Название: Имитатор
Оригинальное название: Copycat
Год выпуска: 1995
Страна: США
Жанр: триллер, драма, детектив
Продолжительность: 02:03:05
Перевод: профессиональный многоголосый, авторский

Режиссер: Джон Эмиел
В ролях: Сигурни Уивер, Холли Хантер, Дермот Малруни, Уильям МакНамара, Гарри Конник мл., Дж.Э. Фримен, Уилл Пэттон, Джон Ротмен, Шэннон О’Хёрли, Боб Грин

О фильме: "9 из 10 серийных убийц — это белые американцы в возрасте от 20 до 35 лет. В штате Флорида было потрачено 8 миллионов долларов, чтобы казнить серийного убийцу Теда Банди. Не лучше ли было предоставить его в распоряжение учёных, чтобы избежать появления новых «тедов банди» в будущем?» — задаёт с кафедры вопрос слушателям учёная-криминалист, эксперт с двадцатилетним стажем, доктор Хелен Хадсон. Ответ она получает через несколько минут в туалете, где, повесив её саму за шею так, чтобы мыски ног едва касались унитаза, маньяк на глазах убивает её охранника. В результате перенесенного шока она 13 месяцев пребывает в состоянии панического страха, не выходя из квартиры, пока к ней не обращаются за помощью полицейские-напарники, красавец Рубен и симпатичная умница с колючим язычком М. Джей. Они ведут расследование серии убийств, совершаемых очередным маньяком. Маньяк, сумасшедший незаурядного ума, практически бросает вызов Хелен, начав эту «шахматную партию» в манере «бостонского душителя»...



Качество: BDRip 1080p
Формат: MKV
Видео: MPEG-4 AVC, 12.6 Mбит/с, 1920x800, 23.976 кадр/с
Аудио 1: русский, DTS, 1509 kbps, 6 ch, 48 kHz [профессиональный многоголосый, Гемини фильм]
Аудио 2: русский, AC3, 192 kbps, 2 ch, 48 kHz [профессиональный многоголосый, Первый канал]
Аудио 3: русский, AC3, 192 kbps, 2 ch, 48 kHz [авторский, Андрей Гаврилов]
Аудио 4: русский, AC3, 192 kbps, 2 ch, 48 kHz [авторский, Василий Горчаков]
Аудио 5: русский, AC3, 640 kbps, 6 ch, 48 kHz [авторский, Юрий Живов]
Аудио 6: английский, DTS, 1509 kbps, 6 ch, 48 kHz [оригинал]
Субтитры 1: русские
Субтитры 2: английские
Неименованные главы/чаптеры.
Общее
Уникальный идентификатор : 234819877317191306534565665608886343846 (0xB0A8A9CFBFCD1D23BE6AD8F4BC2B58A6)
Полное имя : D:\Video\Имитатор.1995.BDRip.1080p by msltel.mkv
Формат : Matroska
Версия формата : Version 4 / Version 2
Размер файла : 14,5 Гбайт
Продолжительность : 2 ч. 3 м.
Общий поток : 16,8 Мбит/сек
Название фильма : Rip by msltel
Дата кодирования : UTC 2017-11-16 02:59:00
Программа кодирования : mkvmerge v8.2.0 ('World of Adventure') 64bit
Библиотека кодирования : libebml v1.3.1 + libmatroska v1.4.2

Видео
Идентификатор : 1
Формат : AVC
Формат/Информация : Advanced Video Codec
Профиль формата : High@L4.1
Настройки формата : CABAC / 4 Ref Frames
Параметр CABAC формата : Да
Параметр RefFrames формата : 4 кадра
Идентификатор кодека : V_MPEG4/ISO/AVC
Продолжительность : 2 ч. 3 м.
Битрейт : 12,6 Мбит/сек
Ширина : 1920 пикселей
Высота : 800 пикселей
Соотношение сторон : 2,40:1
Режим частоты кадров : Постоянный
Частота кадров : 23,976 (24000/1001) кадра/сек
Цветовое пространство : YUV
Субдискретизация насыщенности : 4:2:0
Битовая глубина : 8 бит
Тип развёртки : Прогрессивная
Бит/(Пиксели*Кадры) : 0.342
Размер потока : 10,8 Гбайт (75%)
Библиотека кодирования : x264 core 146 r2538 121396c
Настройки программы : cabac=1 / ref=4 / deblock=1:-3:-2 / analyse=0x3:0x113 / me=umh / subme=11 / psy=1 / psy_rd=1.00:0.15 / mixed_ref=1 / me_range=32 / chroma_me=1 / trellis=2 / 8x8dct=1 / cqm=0 / deadzone=21,11 / fast_pskip=0 / chroma_qp_offset=-3 / threads=6 / lookahead_threads=1 / sliced_threads=0 / nr=0 / decimate=1 / interlaced=0 / bluray_compat=0 / constrained_intra=0 / bframes=9 / b_pyramid=2 / b_adapt=2 / b_bias=0 / direct=1 / weightb=1 / open_gop=0 / weightp=2 / keyint=230 / keyint_min=23 / scenecut=40 / intra_refresh=0 / rc_lookahead=40 / rc=crf / mbtree=0 / crf=19.4 / qcomp=0.60 / qpmin=0 / qpmax=69 / qpstep=4 / vbv_maxrate=62500 / vbv_bufsize=78125 / crf_max=0.0 / nal_hrd=none / filler=0 / ip_ratio=1.40 / pb_ratio=1.30 / aq=1:1.00
Язык : English
Default : Да
Forced : Нет

Аудио #1
Идентификатор : 2
Формат : DTS
Формат/Информация : Digital Theater Systems
Идентификатор кодека : A_DTS
Продолжительность : 2 ч. 3 м.
Вид битрейта : Постоянный
Битрейт : 1509 Кбит/сек
Каналы : 6 каналов
Расположение каналов : Front: L C R, Side: L R, LFE
Частота : 48,0 КГц
Частота кадров : 93,750 кадра/сек (512 SPF)
Битовая глубина : 24 бит
Метод сжатия : С потерями
Размер потока : 1,30 Гбайт (9%)
Заголовок : MVO Гемини фильм
Язык : Russian
Default : Да
Forced : Нет

Аудио #2
Идентификатор : 3
Формат : AC-3
Формат/Информация : Audio Coding 3
Идентификатор кодека : A_AC3
Продолжительность : 2 ч. 3 м.
Вид битрейта : Постоянный
Битрейт : 192 Кбит/сек
Каналы : 2 канала
Расположение каналов : Front: L R
Частота : 48,0 КГц
Частота кадров : 31,250 кадров/сек (1536 SPF)
Битовая глубина : 16 бит
Метод сжатия : С потерями
Размер потока : 169 Мбайт (1%)
Заголовок : MVO Первый канал
Язык : Russian
ServiceKind/String : Complete Main
Default : Нет
Forced : Нет

Аудио #3
Идентификатор : 4
Формат : AC-3
Формат/Информация : Audio Coding 3
Идентификатор кодека : A_AC3
Продолжительность : 2 ч. 3 м.
Вид битрейта : Постоянный
Битрейт : 192 Кбит/сек
Каналы : 2 канала
Расположение каналов : Front: L R
Частота : 48,0 КГц
Частота кадров : 31,250 кадров/сек (1536 SPF)
Битовая глубина : 16 бит
Метод сжатия : С потерями
Размер потока : 169 Мбайт (1%)
Заголовок : Андрей Гаврилов
Язык : Russian
ServiceKind/String : Complete Main
Default : Нет
Forced : Нет

Аудио #4
Идентификатор : 5
Формат : AC-3
Формат/Информация : Audio Coding 3
Идентификатор кодека : A_AC3
Продолжительность : 2 ч. 3 м.
Вид битрейта : Постоянный
Битрейт : 192 Кбит/сек
Каналы : 2 канала
Расположение каналов : Front: L R
Частота : 48,0 КГц
Частота кадров : 31,250 кадров/сек (1536 SPF)
Битовая глубина : 16 бит
Метод сжатия : С потерями
Размер потока : 169 Мбайт (1%)
Заголовок : Василий Горчаков
Язык : Russian
ServiceKind/String : Complete Main
Default : Нет
Forced : Нет

Аудио #5
Идентификатор : 6
Формат : AC-3
Формат/Информация : Audio Coding 3
Идентификатор кодека : A_AC3
Продолжительность : 2 ч. 3 м.
Вид битрейта : Постоянный
Битрейт : 640 Кбит/сек
Каналы : 6 каналов
Расположение каналов : Front: L C R, Side: L R, LFE
Частота : 48,0 КГц
Частота кадров : 31,250 кадров/сек (1536 SPF)
Битовая глубина : 16 бит
Метод сжатия : С потерями
Размер потока : 563 Мбайт (4%)
Заголовок : Юрий Живов
Язык : Russian
ServiceKind/String : Complete Main
Default : Нет
Forced : Нет

Аудио #6
Идентификатор : 7
Формат : DTS
Формат/Информация : Digital Theater Systems
Идентификатор кодека : A_DTS
Продолжительность : 2 ч. 3 м.
Вид битрейта : Постоянный
Битрейт : 1509 Кбит/сек
Каналы : 6 каналов
Расположение каналов : Front: L C R, Side: L R, LFE
Частота : 48,0 КГц
Частота кадров : 93,750 кадра/сек (512 SPF)
Битовая глубина : 24 бит
Метод сжатия : С потерями
Размер потока : 1,30 Гбайт (9%)
Заголовок : original
Язык : English
Default : Нет
Forced : Нет

Текст #1
Идентификатор : 8
Формат : UTF-8
Идентификатор кодека : S_TEXT/UTF8
Идентификатор кодека/Информация : UTF-8 Plain Text
Продолжительность : 1 ч. 57 м.
Битрейт : 81 бит/сек
ElementCount : 1097
Размер потока : 70,5 Кбайт (0%)
Заголовок : русские
Язык : Russian
Default : Нет
Forced : Нет

Текст #2
Идентификатор : 9
Формат : UTF-8
Идентификатор кодека : S_TEXT/UTF8
Идентификатор кодека/Информация : UTF-8 Plain Text
Продолжительность : 2 ч. 2 м.
Битрейт : 55 бит/сек
ElementCount : 1636
Размер потока : 50,1 Кбайт (0%)
Заголовок : английские
Язык : English
Default : Нет
Forced : Нет

Меню
00:00:00.000 : en:00:00:00.000
00:03:51.398 : en:00:03:51.398
00:07:12.098 : en:00:07:12.098
00:10:25.500 : en:00:10:25.500
00:12:41.844 : en:00:12:41.844
00:13:53.249 : en:00:13:53.249
00:19:19.950 : en:00:19:19.950
00:20:50.249 : en:00:20:50.249
00:25:26.692 : en:00:25:26.692
00:31:40.107 : en:00:31:40.107
00:33:41.478 : en:00:33:41.478
00:36:21.262 : en:00:36:21.262
00:38:16.252 : en:00:38:16.252
00:42:17.493 : en:00:42:17.493
00:47:07.825 : en:00:47:07.825
00:48:41.085 : en:00:48:41.085
00:51:32.840 : en:00:51:32.840
00:53:50.894 : en:00:53:50.894
00:58:07.067 : en:00:58:07.067
01:00:21.868 : en:01:00:21.868
01:06:42.248 : en:01:06:42.248
01:09:16.402 : en:01:09:16.402
01:11:31.662 : en:01:11:31.662
01:14:42.770 : en:01:14:42.770
01:16:41.555 : en:01:16:41.555
01:21:54.952 : en:01:21:54.952
01:25:31.793 : en:01:25:31.793
01:28:22.547 : en:01:28:22.547
01:32:50.607 : en:01:32:50.607
01:36:12.141 : en:01:36:12.141
01:38:13.596 : en:01:38:13.596
01:39:26.210 : en:01:39:26.210
01:42:36.317 : en:01:42:36.317
01:47:33.155 : en:01:47:33.155
01:49:34.151 : en:01:49:34.151
01:51:02.656 : en:01:51:02.656
01:52:25.822 : en:01:52:25.822
01:53:35.392 : en:01:53:35.392
01:55:30.215 : en:01:55:30.215
pb.wtf



Скачать Имитатор через торрент http://s018.radikal.ru/i513/1711/a3/c81ce4574f40.jpg Скачать, смотреть онлайн Имитатор бесплантно в хорошем качестве О фильме: "9 из 10 серийных убийц — это белые американцы в возрасте от 20 до 35 лет. В штате Флорида было потрачено 8 миллионов долларов, ... 10 10 2
Info! Золотая раздача, скачанное не засчитывается.
Торрент: Зарегистрирован [2017-11-16 06:33] · скачан: 37 раз
Статус: √ проверено
Размер: 14.47 GB
Как cкачать? Как скачать Имитатор через торрент | UTorrent

% Раздел Тема Автор DL S | L
Фильмы [HD 720p, 1080p] (Хороший звук DUB, MVO) [ 5.92 GB ] Имитатор / Copycat [1995 BDRip 720p by msltel] 2 x MVO 3 x AVO msltel Скачать
1 | 0

28-11-2019 20:33  

Отключить всю рекламу на сайте

    Дорогой пользователь! Огромная просьба, поблагодарите релизера, оцените раздачу и оставьте свои комментарий, если Вы скачали Имитатор через торрент бесплатно!
    Комментировать посты могут только пользователи прошедшие не сложную регистрацию
    Показать сообщения:    

    Имитатор через торрент
    Скачать бесплатно Имитатор
    Имитатор скачать торрент
    Имитатор смотреть онлайн
    Cкачать фильм Имитатор бесплатно
    Имитатор скачать торрент в хорошем качестве
    Имитатор смотреть онлайн бесплатно в хорошем качестве


    Вы не можете начинать темы
    Вы не можете отвечать на сообщения
    Вы не можете редактировать свои сообщения
    Вы не можете удалять свои сообщения
    Вы не можете голосовать в опросах
    Вы не можете прикреплять файлы к сообщениям
    Вы можете скачивать файлы