Ссылка на приватное зеркало нашего сайта всего за 1$. Внимание количество ограничено!!!

2 сезон

iTunes

1 сезон

1

2 сезон

2 сезон

iTunes

1 сезон

RePack

30

Ultimate

ВАЖНО

ИГРА 18+

pack

RePack

MK11
pack

Забери бонус

RePack

jed

!!Акция!!

Alien_Rage

RePack

fifa19

RePack

Assassins Creed: Odyssey

RePack

NEED FOR SPEED™ PAYBACK

4 сезон

9 сезон

Бесстыжие 9 сезон

Все сериалы

все сериалы на PB.wtf

RePack

FAR CRY 5
  

Острые козырьки / Peaky Blinders / Сезон: 4 / Серии: 1-6 из 6 [2017, драма, криминал, BDRip 1080p] [MVO] (AlexFilm) pb.wtf

Острые козырьки через торрент pb.wtf

Размер: 24.53 GB | Добавлен: 1 год 3 мес. назад | Торрент скачан:36 раз
Скачать  

17-11-2017 09:40 Острые козырьки Скачать торрент  

Заточенные кепки /Острые козырьки / Peaky Blinders
Год выпуска: 2017
Страна: Великобритания
Жанр: драма, криминал
Продолжительность: 1x ~00:59:00
Перевод: Профессиональный (многоголосый) • AlexFilm
Субтитры: Русские (Full |N-Team|*), английские (Full)

Режиссер: Отто Баферст / Otto Bathurst, Том Харпер / Tom Harper

В ролях: Киллиан Мерфи, Пол Андерсон, Иддо Голдберг, Хелен МакКрори, Сэм Нилл, Аннабелль Уоллис, Джо Коул, Элфи Эванс-Мис, Джек Хартли, Кевин Меткалф Британский сериал о криминальном мире Бирмингема 20-х годов прошлого века, в котором многолюдная семья Шелби стала одной из самых жестоких и влиятельных гангстерских банд послевоенного времени. Фирменным знаком группировки, промышлявшей грабежами и азартными играми, стали зашитые в козырьки лезвия.



Качество: BDRip 1080p
Формат: MKV
Видео кодек: AVC
Аудио кодек: AC3
Видео: AVC, 1920x1040, 25.000 fps, ~ 9200 kbps
Аудио: 48 kHz, AC3 2 ch, ~192 kbps avg [MVO]
Аудио: 48 kHz, AC3 6 ch, ~640 kbps avg [ENG]

Релиз:

Перевод: Виктория Востокова
Монтаж и сведение звука: Михаил Шорыгин
Роли озвучивали:
Евгения Тихонова
Екатерина Муравицкая
Владимир Курдов
Константин Погодаев
Кирилл Патрино
Михаил Суслов
General
Unique ID : 200877068661903626905030037115442110225 (0x971F8423907A0A998B53D4FEFEC51F11)
Complete name : D:\Сериалы\Peaky_Blinders_(s04)_1080p_AlexFilm\Peaky.Blinders.s04e01.BDRip.1080p.mkv
Format : Matroska
Format version : Version 2
File size : 4.10 GiB
Duration : 57 min 54 s
Overall bit rate : 10.1 Mb/s
Encoded date : UTC 2018-03-25 16:32:01
Writing application : mkvmerge v4.9.1 ('Ich will') сборка от Jul 11 2011 23:53:15
Writing library : libebml v1.2.1 + libmatroska v1.1.1

Video
ID : 1
Format : AVC
Format/Info : Advanced Video Codec
Format profile : High@L4.1
Format settings : CABAC / 4 Ref Frames
Format settings, CABAC : Yes
Format settings, ReFrames : 4 frames
Codec ID : V_MPEG4/ISO/AVC
Duration : 57 min 54 s
Bit rate : 9 296 kb/s
Width : 1 920 pixels
Height : 1 040 pixels
Display aspect ratio : 1.85:1
Frame rate mode : Constant
Frame rate : 25.000 FPS
Color space : YUV
Chroma subsampling : 4:2:0
Bit depth : 8 bits
Scan type : Progressive
Bits/(Pixel*Frame) : 0.186
Stream size : 3.68 GiB (90%)
Writing library : x264 core 155 r2893 b00bcaf
Encoding settings : cabac=1 / ref=4 / deblock=1:-3:-3 / analyse=0x3:0x113 / me=umh / subme=8 / psy=1 / psy_rd=1.00:0.00 / mixed_ref=1 / me_range=16 / chroma_me=1 / trellis=1 / 8x8dct=1 / cqm=0 / deadzone=21,11 / fast_pskip=1 / chroma_qp_offset=-2 / threads=24 / lookahead_threads=4 / sliced_threads=0 / nr=0 / decimate=1 / interlaced=0 / bluray_compat=0 / constrained_intra=0 / bframes=3 / b_pyramid=2 / b_adapt=2 / b_bias=0 / direct=3 / weightb=1 / open_gop=0 / weightp=2 / keyint=250 / keyint_min=25 / scenecut=40 / intra_refresh=0 / rc_lookahead=50 / rc=2pass / mbtree=1 / bitrate=9296 / ratetol=1.0 / qcomp=0.60 / qpmin=0 / qpmax=69 / qpstep=4 / cplxblur=20.0 / qblur=0.5 / ip_ratio=1.40 / aq=3:0.80
Default : Yes
Forced : No

Audio #1
ID : 2
Format : AC-3
Format/Info : Audio Coding 3
Codec ID : A_AC3
Duration : 57 min 54 s
Bit rate mode : Constant
Bit rate : 192 kb/s
Channel(s) : 2 channels
Channel positions : Front: L R
Sampling rate : 48.0 kHz
Frame rate : 31.250 FPS (1536 SPF)
Bit depth : 16 bits
Compression mode : Lossy
Stream size : 79.5 MiB (2%)
Title : AlexFilm
Language : Russian
Service kind : Complete Main
Default : Yes
Forced : No

Audio #2
ID : 3
Format : AC-3
Format/Info : Audio Coding 3
Codec ID : A_AC3
Duration : 57 min 54 s
Bit rate mode : Constant
Bit rate : 640 kb/s
Channel(s) : 6 channels
Channel positions : Front: L C R, Side: L R, LFE
Sampling rate : 48.0 kHz
Frame rate : 31.250 FPS (1536 SPF)
Bit depth : 16 bits
Compression mode : Lossy
Stream size : 265 MiB (6%)
Language : English
Service kind : Complete Main
Default : No
Forced : No

Text #1
ID : 4
Format : UTF-8
Codec ID : S_TEXT/UTF8
Codec ID/Info : UTF-8 Plain Text
Title : Full |N-Team|
Language : Russian
Default : No
Forced : No

Text #2
ID : 5
Format : UTF-8
Codec ID : S_TEXT/UTF8
Codec ID/Info : UTF-8 Plain Text
Title : Full
Language : English
Default : No
Forced : No

Menu
00:00:00.000 : en:00:00:00.000
00:10:07.880 : en:00:10:07.880
00:19:53.640 : en:00:19:53.640
00:31:42.760 : en:00:31:42.760
00:40:09.440 : en:00:40:09.440
00:46:17.560 : en:00:46:17.560
скриншот  скриншот  скриншот  
pb.wtf



Скачать Острые козырьки через торрент http://alexfilm.cc/data/pictures/4/a0db3099065c35b3038115f88f28a616.jpg Скачать фильм Острые козырьки через торрент бесплантно в хорошем качестве В ролях: Киллиан Мерфи, Пол Андерсон, Иддо Голдберг, Хелен МакКрори, Сэм Нилл, Аннабелль Уоллис, Джо Коул, Элфи Эванс-Мис, Джек Хартли, ... 9.1 10 21
Торрент: Зарегистрирован [2019-07-30 08:39] · скачан: 36 раз
Статус: √ проверено
Размер: 24.53 GB
Как cкачать? Как скачать Острые козырьки через торрент | qTorrent

% Раздел Тема Автор DL S | L
Зарубежные сериалы [ 5.06 GB ] Острые козырьки / Peaky Blinders / Сезон: 4 / Серии: 1-6 из 6 [2017 HDRip] killermax2013 Скачать
1 | 0
Зарубежные сериалы [ 25 GB ] Заточенные кепки / Острые козырьки / Peaky Blinders / Сезон: 4 / Серии: 1-6 из 6 [2017 BDRip 1080p] MVO [LostFilm] bober100 Скачать
1 | 0
Зарубежные сериалы [ 9.83 GB ] Заточенные кепки / Острые козырьки / Peaky Blinders / Сезон: 4 / Серии: 1-6 из 6 [2017 WEB-DLRip 1080p] [MVO] killermax2013 Скачать
1 | 0
Зарубежные сериалы [ 3.67 GB ] Заточенные кепки / Острые козырьки / Peaky Blinders / Сезон: 4 / Серии: 1-6 из 6 [2017 HDTVRip-AVC] многоголосый [AlexFilm] R.G.Generalfilm White Smoke Скачать
1 | 0
Зарубежные сериалы [ 7.72 GB ] Заточенные кепки / Острые козырьки / Peaky Blinders / Сезон: 4 / Серии: 1-6 из 6 [2017 HDTVRip 720p][MVO] nn99nn Скачать
1 | 0
Зарубежные сериалы [ 5.93 GB ] Заточенные кепки / Острые козырьки / Peaky Blinders / Сезон:4 / Серии: 1-6 из 6 [2017 WEBRip 720p] [DVO] killermax2013 Скачать
1 | 0
Зарубежные сериалы [ 10.57 GB ] Заточенные кепки / Острые козырьки / Peaky Blinders / Сезон: 4 / Серии: 1-6 из 6 [2017 HDTVRip 1080p] [Sub] killermax2013 Скачать
1 | 0


Последний раз редактировалось: killermax2013 (2017-12-22 06:49), всего редактировалось 4 раз(а)

28-11-2019 20:33  

Отключить всю рекламу на сайте

30-07-2019 09:36 Острые козырьки Скачать торрент  

Думал что новый сезон подъехал)pb.wtf



    Дорогой пользователь! Огромная просьба, поблагодарите релизера, оцените раздачу и оставьте свои комментарий, если Вы скачали Острые козырьки через торрент бесплатно! Внесите свою лепту в развитие PiratBit!
    Комментировать посты могут только пользователи прошедшие не сложную регистрацию
    Показать сообщения:    

    Острые козырьки через торрент
    Скачать бесплатно Острые козырьки
    Острые козырьки скачать торрент
    Острые козырьки смотреть онлайн
    Cкачать фильм Острые козырьки бесплатно
    Острые козырьки скачать торрент в хорошем качестве
    Острые козырьки смотреть онлайн бесплатно в хорошем качестве


    Вы не можете начинать темы
    Вы не можете отвечать на сообщения
    Вы не можете редактировать свои сообщения
    Вы не можете удалять свои сообщения
    Вы не можете голосовать в опросах
    Вы не можете прикреплять файлы к сообщениям
    Вы можете скачивать файлы