Ссылка на приватное зеркало нашего сайта всего за 1$. Внимание количество ограничено!!!

2 сезон

iTunes

1 сезон

1

2 сезон

2 сезон

iTunes

1 сезон

RePack

30

Ultimate

ВАЖНО

ИГРА 18+

pack

RePack

MK11
pack

Забери бонус

RePack

jed

!!Акция!!

Alien_Rage

RePack

fifa19

RePack

Assassins Creed: Odyssey

RePack

NEED FOR SPEED™ PAYBACK

4 сезон

9 сезон

Бесстыжие 9 сезон

Все сериалы

все сериалы на PB.wtf

RePack

FAR CRY 5
  

Проклятие Аннабель: Зарождение зла / Annabelle: Creation (Дэвид Ф. Сандберг) [2017, Ужасы, триллер, детектив, BD Remux 1080p] DUB [Лицензия] pb.wtf

Проклятие Аннабель: Зарождение зла через торрент pb.wtf

Размер: 24.54 GB | Добавлен: 3 года назад | Торрент скачан:89 раз
Скачать  

17-11-2017 09:41 Проклятие Аннабель: Зарождение зла Скачать торрент  

Проклятие Аннабель: Зарождение зла / Annabelle: CreationГод выпуска: 2017
Страна: США
Жанр: Ужасы, триллер, детектив
Продолжительность: 01:49:43
Перевод: Дублированный | Лицензия
Субтитры: Русские (forced, full), английские

Режиссер: Дэвид Ф. Сандберг

rating

В ролях:

Стефани Сигман, Миранда Отто, Лулу Уилсон, Энтони ЛаПалья, Талита Бейтман, Алисия Вела-Бэйли, Керри О Мэлли, Филиппа Култхард, Джозеф Бишара, Адам Бартли

Описание:

Кукольный мастер, чья единственная дочь трагически погибла 20 лет назад, вместе с женой решают открыть двери своего дома для монахини и нескольких девочек из закрытого сиротского приюта. Но одержимое создание кукольника – Аннабель – пристально наблюдает за детьми и вскоре накрывает их убежище ураганом ужаса и страха.

Качество: BD Remux 1080p
Формат: MKV
Видео кодек: H.264
Аудио кодек: AC3

Видео: MPEG-4 AVC, 1920x1080, 27.7 Mbit/s, 23.976 fps
Аудио#1: 48 kHz, AC3, 5.1, 640 Kbps | Дублированный | RUS |
Аудио#2: 48 kHz, TrueHD, 7.1, 3123 Kbps | Оригинал | ENG |
Аудио#3: 48 kHz, AC3, 5.1, 448 Kbps | Оригинал | ENG |

Релиз от:
скриншот   скриншот   скриншот   скриншот   скриншот  

General
Unique ID : 232421488984345398721653449295126910353 (0xAEDAC023168D99D9A307B91C4128D591)
Complete name : G:VideoSSDAnnabelle.Creation.2017.BDREMUX.1080p.ExKinoRay.mkv
Format : Matroska
Format version : Version 4 / Version 2
File size : 24.5 GiB
Duration : 1 h 49 min
Overall bit rate mode : Variable
Overall bit rate : 32.0 Mb/s
Movie name : Annabelle.Creation.2017.BDREMUX.1080p.ExKinoRay
Encoded date : UTC 2017-11-17 05:58:02
Writing application : mkvmerge v17.0.0 ('Be Ur Friend') 64-bit
Writing library : libebml v1.3.5 + libmatroska v1.4.8

Video
ID : 1
Format : AVC
Format/Info : Advanced Video Codec
Format profile : High@L4.1
Format settings : CABAC / 4 Ref Frames
Format settings, CABAC : Yes
Format settings, RefFrames : 4 frames
Codec ID : V_MPEG4/ISO/AVC
Duration : 1 h 49 min
Bit rate mode : Variable
Bit rate : 27.7 Mb/s
Maximum bit rate : 32.0 Mb/s
Width : 1 920 pixels
Height : 1 080 pixels
Display aspect ratio : 16:9
Frame rate mode : Constant
Frame rate : 23.976 (24000/1001) FPS
Color space : YUV
Chroma subsampling : 4:2:0
Bit depth : 8 bits
Scan type : Progressive
Bits/(Pixel*Frame) : 0.558
Stream size : 21.3 GiB (87%)
Language : English
Default : Yes
Forced : No

Audio #1
ID : 2
Format : AC-3
Format/Info : Audio Coding 3
Format settings, Endianness : Big
Codec ID : A_AC3
Duration : 1 h 49 min
Bit rate mode : Constant
Bit rate : 640 kb/s
Channel(s) : 6 channels
Channel positions : Front: L C R, Side: L R, LFE
Sampling rate : 48.0 kHz
Frame rate : 31.250 FPS (1536 SPF)
Bit depth : 16 bits
Compression mode : Lossy
Stream size : 502 MiB (2%)
Title : Dub [License]
Language : Russian
Service kind : Complete Main
Default : Yes
Forced : No

Audio #2
ID : 3
Format : TrueHD
Format profile : TrueHD+Atmos / TrueHD
Codec ID : A_TRUEHD
Duration : 1 h 49 min
Bit rate mode : Variable
Bit rate : 3 123 kb/s
Maximum bit rate : 6 840 kb/s
Channel(s) : Object Based / 8 channels
Channel positions : Object Based / Front: L C R, Side: L R, Back: L R, LFE
Sampling rate : / 48.0 kHz
Frame rate : 1 200.000 FPS (40 SPF)
Compression mode : Lossless
Stream size : 2.39 GiB (10%)
Title : Original
Language : English
Default : No
Forced : No

Audio #3
ID : 4
Format : AC-3
Format/Info : Audio Coding 3
Format settings, Endianness : Big
Codec ID : A_AC3
Duration : 1 h 49 min
Bit rate mode : Constant
Bit rate : 448 kb/s
Channel(s) : 6 channels
Channel positions : Front: L C R, Side: L R, LFE
Sampling rate : 48.0 kHz
Frame rate : 31.250 FPS (1536 SPF)
Bit depth : 16 bits
Compression mode : Lossy
Stream size : 352 MiB (1%)
Language : English
Service kind : Complete Main
Default : No
Forced : No

Text #1
ID : 5
Format : UTF-8
Codec ID : S_TEXT/UTF8
Codec ID/Info : UTF-8 Plain Text
Duration : 1 h 47 min
Bit rate : 0 b/s
Count of elements : 7
Stream size : 267 Bytes (0%)
Title : Forced
Language : Russian
Default : Yes
Forced : No

Text #2
ID : 6
Format : UTF-8
Codec ID : S_TEXT/UTF8
Codec ID/Info : UTF-8 Plain Text
Duration : 1 h 47 min
Bit rate : 37 b/s
Count of elements : 702
Stream size : 29.4 KiB (0%)
Title : Full
Language : Russian
Default : No
Forced : No

Text #3
ID : 7
Format : UTF-8
Codec ID : S_TEXT/UTF8
Codec ID/Info : UTF-8 Plain Text
Duration : 1 h 40 min
Bit rate : 25 b/s
Count of elements : 715
Stream size : 19.0 KiB (0%)
Title : Full
Language : English
Default : No
Forced : No

Text #4
ID : 8
Format : UTF-8
Codec ID : S_TEXT/UTF8
Codec ID/Info : UTF-8 Plain Text
Duration : 1 h 46 min
Bit rate : 31 b/s
Count of elements : 1021
Stream size : 25.0 KiB (0%)
Title : SDH
Language : English
Default : No
Forced : No

Text #5
ID : 9
Format : UTF-8
Codec ID : S_TEXT/UTF8
Codec ID/Info : UTF-8 Plain Text
Duration : 1 h 46 min
Bit rate : 81 b/s
Count of elements : 1012
Stream size : 63.4 KiB (0%)
Title : SDH Colored
Language : English
Default : No
Forced : No

Menu
00:00:00.000 : en:Chapter 1
00:11:25.351 : en:Chapter 2
00:20:35.067 : en:Chapter 3
00:30:33.290 : en:Chapter 4
00:42:03.604 : en:Chapter 5
00:52:39.239 : en:Chapter 6
01:03:12.497 : en:Chapter 7
01:13:14.682 : en:Chapter 8
01:23:55.614 : en:Chapter 9
01:33:19.302 : en:Chapter 10
01:43:27.618 : en:Chapter 11

pb.wtf



Скачать Проклятие Аннабель: Зарождение зла через торрент http://s015.radikal.ru/i330/1710/6d/f82e6cbbcac5.jpg Скачать фильм Проклятие Аннабель: Зарождение зла через торрент бесплантно в хорошем качестве Описание: Кукольный мастер, чья единственная дочь трагически погибла 20 лет назад, вместе с женой решают открыть двери своего дома для ... 8.2 10 5
Торрент: Зарегистрирован [2017-11-17 09:41] · скачан: 89 раз
Статус: √ проверено
Размер: 24.54 GB
Как cкачать? Как скачать Проклятие Аннабель: Зарождение зла через торрент | qTorrent

% Раздел Тема Автор DL S | L
T Фильмы (HD 720p, 1080p) (48-60 fps) [ 18.26 GB ] Проклятие Аннабель: Зарождение зла / Annabelle: Creation [2017 BDRip 1080p 60 fps] sheker187 Скачать
1 | 0
Фильмы [HD 720p, 1080p] (Хороший звук DUB, MVO) [ 2.87 GB ] Проклятие Аннабель: Зарождение зла / Annabelle: Creation [2017 BDRip 720p] sokol_ok Скачать
1 | 0
Фильмы 2017 [DVDrip, WEB-DLRip, HDrip] (DUB, MVO) [ 746 MB ] Проклятие Аннабель: Зарождение зла / Annabelle: Creation [2017 BDRip-AVC] sokol_ok Скачать
2 | 0
Фильмы 2017 [DVDrip, WEB-DLRip, HDrip] (DUB, MVO) [ 1.48 GB ] Проклятие Аннабель: Зарождение зла / Annabelle: Creation [2017 BDRip-AVC] sokol_ok Скачать
2 | 0
Видео для КПК и Смартфонов [ 420 MB ] Проклятие Аннабель: Зарождение зла / Annabelle: Creation [2017 HDRip КПК] DUB [] bober100 Скачать
1 | 0
Фильмы 2017 [DVDrip, WEB-DLRip, HDrip] (DUB, MVO) [ 2.17 GB ] Проклятие Аннабель: Зарождение зла / Annabelle: Creation [2017 HDRip "BD EUR"] coc900 Скачать
1 | 0
Фильмы 2017 [DVDrip, WEB-DLRip, HDrip] (DUB, MVO) [ 1.46 GB ] Проклятие Аннабель: Зарождение зла / Annabelle: Creation [2017 BDRip] - [] Twi7ter Скачать
1 | 0

28-11-2019 20:33  

Отключить всю рекламу на сайте

03-12-2017 19:49 Проклятие Аннабель: Зарождение зла Скачать торрент  

Веселенький фильм )pb.wtf



    Дорогой пользователь! Огромная просьба, поблагодарите релизера, оцените раздачу и оставьте свои комментарий, если Вы скачали Проклятие Аннабель: Зарождение зла через торрент бесплатно! Внесите свою лепту в развитие PiratBit!
    Комментировать посты могут только пользователи прошедшие не сложную регистрацию
    Показать сообщения:    

    Проклятие Аннабель: Зарождение зла через торрент
    Скачать бесплатно Проклятие Аннабель: Зарождение зла
    Проклятие Аннабель: Зарождение зла скачать торрент
    Проклятие Аннабель: Зарождение зла смотреть онлайн
    Cкачать фильм Проклятие Аннабель: Зарождение зла бесплатно
    Проклятие Аннабель: Зарождение зла скачать торрент в хорошем качестве
    Проклятие Аннабель: Зарождение зла смотреть онлайн бесплатно в хорошем качестве


    Вы не можете начинать темы
    Вы не можете отвечать на сообщения
    Вы не можете редактировать свои сообщения
    Вы не можете удалять свои сообщения
    Вы не можете голосовать в опросах
    Вы не можете прикреплять файлы к сообщениям
    Вы можете скачивать файлы