Мега распродажа FORZA HORIZON 4 ULTIMATE+ВСЕ DLC+ОНЛАЙН всего за 499р. 349 руб. (супер цена). Внимание количество ограничено!!!

iTunes

1+1

iTunes

мы

iTunes

1

1 сезон

Чернобыль

1 сезон

Ральф против интернета

Лицензия

ПШазам

8 сезон

Игра престолов

Лицензия

30
pack

ВАЖНО

!!Акция!!

Alien_RageХит недели

RePack

Resident Evil 21

ИГРА 18+

pack

RePack

Metro:Exodus

!!Акция!!

Alien_Rage

RePack

fifa19

RePack

Assassins Creed: Odyssey

RePack

NEED FOR SPEED™ PAYBACK

3 сезон

9 сезон

Бесстыжие 9 сезон

Все сериалы

все сериалы на PB.wtf

RePack

FAR CRY 5
Ребята, катастрофически не хватает 2730р. для оплаты серверов за ИЮНЬ (всвязи с блокировками трафик упал в 3 раза), 1-2р., выручайте.
  

Хэллоуин 6: Проклятие Майкла Майерса / Halloween: The Curse of Michael Myers (Джо Чаппелль) [1995 г., Ужасы, Триллер, BDRip-AVC, Профессиональный (двухголосый)] pb.wtf

Хэллоуин 6: Проклятие Майкла Майерса через торрент pb.wtf

Размер: 2.09 GB | Добавлен: 1 год 4 мес. назад | Торрент скачан:10 раз
Скачать  

17-11-2017 11:25 Хэллоуин 6: Проклятие Майкла Майерса Скачать торрент  

Хэллоуин 6: Проклятие Майкла Майерса / Halloween: The Curse of Michael Myers
Год выпуска: 1995
Страна: США
Жанр: Ужасы, Триллер
Продолжительность: 01:28:11
Перевод: Профессиональный (Двухголосый закадровый) НТВ+
Субтитры: отсутствуют

Режиссер: Джо Чаппелль

Премьера в мире: 29 сентября 1995

rating

В ролях: Дональд Плезенс, Пол Радд, Марианн Хэйгэн, Митч Райан, Ким Дарби, Брэдфорд Инглиш, Кейт Богарт, Мэрайя О’Брайэн, Лео Гетер, Дж.С. Брэнди

Описание: Продолжение известного триллера о безжалостном маньяке Майкле Майерсе, который в очередной раз появляется в маленьком американском городке Хэддонфилд накануне праздника Дня Всех Святых.

Качество: BDRip-AVC
Формат: MKV
Видео кодек: H.264
Аудио кодек: AC3
Видео: AVC/H.264, 1024х556 (1,85:1), ~3200 kbps, 0.234 bit/pixel
Аудио#1: Русский: AC3, 2 ch, 192 kbps - Профессиональный (Двухголосый закадровый) НТВ+
Релиз от: winchester00100010
Общее
Уникальный идентификатор : 212287965597673994354790443116023007295 (0x9FB52CCB57B00A5A92D6FEC1E43C483F)
Полное имя : D:\Торрент файлы раздач вместе с фильмами\Halloween.6.1995.x264.BDRip-AVC.mkv
Формат : Matroska
Версия формата : Version 2
Размер файла : 2,09 Гбайт
Продолжительность : 1 ч. 28 м.
Общий поток : 3390 Кбит/сек
Название фильма : winchester00100010
Дата кодирования : UTC 2017-11-17 11:03:14
Программа кодирования : mkvmerge v5.8.0 ('No Sleep / Pillow') built on Sep 2 2012 15:37:04
Библиотека кодирования : libebml v1.2.3 + libmatroska v1.3.0

Видео
Идентификатор : 1
Формат : AVC
Формат/Информация : Advanced Video Codec
Профиль формата : High@L4.1
Настройки формата : CABAC / 10 Ref Frames
Параметр CABAC формата : Да
Параметр RefFrames формата : 10 кадров
Идентификатор кодека : V_MPEG4/ISO/AVC
Продолжительность : 1 ч. 28 м.
Битрейт : 3200 Кбит/сек
Ширина : 1024 пикселя
Высота : 556 пикселей
Соотношение сторон : 1,85:1
Режим частоты кадров : Постоянный
Частота кадров : 24,000 кадра/сек
Цветовое пространство : YUV
Субдискретизация насыщенности : 4:2:0
Битовая глубина : 8 бит
Тип развёртки : Прогрессивная
Бит/(Пиксели*Кадры) : 0.234
Размер потока : 1,93 Гбайт (92%)
Заголовок : Hjellouin.6.1995.x264.BDRip.AVC.MediaClub
Библиотека кодирования : x264 core 142 r2409+42 04be48a tMod [8-bit@4:2:0 X86]
Настройки программы : cabac=1 / ref=10 / deblock=1:-3:-3 / analyse=0x3:0x133 / me=umh / subme=11 / psy=1 / fade_compensate=0.00 / psy_rd=1.05:0.20 / mixed_ref=1 / me_range=32 / chroma_me=1 / trellis=2 / 8x8dct=1 / cqm=0 / deadzone=21,11 / fast_pskip=0 / chroma_qp_offset=-3 / threads=3 / lookahead_threads=1 / sliced_threads=0 / nr=0 / decimate=0 / interlaced=0 / bluray_compat=0 / constrained_intra=0 / fgo=0 / bframes=8 / b_pyramid=2 / b_adapt=2 / b_bias=0 / direct=3 / weightb=1 / open_gop=0 / weightp=2 / keyint=240 / keyint_min=23 / scenecut=40 / intra_refresh=0 / rc=2pass / mbtree=0 / bitrate=3200 / ratetol=1.0 / qcomp=0.60 / qpmin=0:0:0 / qpmax=69:69:69 / qpstep=4 / cplxblur=20.0 / qblur=0.5 / ip_ratio=1.40 / pb_ratio=1.30 / aq=1:1.00 / aq-sensitivity=10.00 / aq-factor=1.00:1.00:1.00 / aq2=0 / aq3=0
Язык : English
Default : Да
Forced : Нет

Аудио
Идентификатор : 2
Формат : AC-3
Формат/Информация : Audio Coding 3
Идентификатор кодека : A_AC3
Продолжительность : 1 ч. 28 м.
Вид битрейта : Постоянный
Битрейт : 192 Кбит/сек
Каналы : 2 канала
Расположение каналов : Front: L R
Частота : 48,0 КГц
Частота кадров : 31,250 кадров/сек (1536 SPF)
Битовая глубина : 16 бит
Метод сжатия : С потерями
Размер потока : 121 Мбайт (6%)
Заголовок : Профессиональный (двухголосый закадровый) НТВ+
Язык : Russian
ServiceKind/String : Complete Main
Default : Да
Forced : Да

Меню
00:00:00.000 : en:00:00:00.000
00:04:35.692 : en:00:04:35.692
00:11:28.358 : en:00:11:28.358
00:15:52.525 : en:00:15:52.525
00:19:54.858 : en:00:19:54.858
00:25:39.608 : en:00:25:39.608
00:31:29.983 : en:00:31:29.983
00:39:02.067 : en:00:39:02.067
00:43:23.233 : en:00:43:23.233
00:48:54.358 : en:00:48:54.358
00:58:15.400 : en:00:58:15.400
01:04:25.692 : en:01:04:25.692
01:10:51.983 : en:01:10:51.983
01:14:26.567 : en:01:14:26.567
01:17:57.358 : en:01:17:57.358

pb.wtf



Скачать Хэллоуин 6: Проклятие Майкла Майерса через торрент http://pic1.kartinco.top/images/11/4wyf4.jpg Скачать фильм Хэллоуин 6: Проклятие Майкла Майерса через торрент бесплантно в хорошем качестве Описание: Продолжение известного триллера о безжалостном маньяке Майкле Майерсе, который в очередной раз появляется в маленьком ... 10 10 3
Торрент: Зарегистрирован [2018-03-01 10:25] · скачан: 10 раз
Статус: √ проверено
Размер: 2.09 GB
Как cкачать? Как скачать Хэллоуин 6: Проклятие Майкла Майерса через торрент | qTorrent

% Раздел Тема Автор DL S | L
Фильмы [HD 720p, 1080p] (Хороший звук DUB, MVO) [ 10.75 GB ] Хэллоуин 6: Проклятие Майкла Майерса / Halloween: The Curse of Michael Myers [1995 г BDRip 1080p ] winchester00100010 Скачать
1 | 0
Фильмы [HD 720p, 1080p] (Хороший звук DUB, MVO) [ 4.33 GB ] Хэллоуин 6: Проклятие Майкла Майерса / Halloween: The Curse of Michael Myers [1995 г BDRip 720p ] winchester00100010 Скачать
1 | 0


Последний раз редактировалось: winchester00100010 (2018-03-01 10:25), всего редактировалось 1 раз


>> Регистрируемся здесь <<






Отзывы и комментарии о схеме читаем и пишем здесь: ---> Отзывы и комментарии о схеме

Новые благодарочки в телеграм довольных пользователей:
скриншот   скриншот   скриншот   скриншот   скриншот

10-12-2017 20:16 Хэллоуин 6: Проклятие Майкла Майерса Скачать торрент  

Перезалил торрент файлик, так как человек писал вконтакте мне, что он не может скачать и не качается раздача, перекачайте торрентpb.wtf



    Дорогой пользователь! Огромная просьба, поблагодарите релизера, оцените раздачу и оставьте свои комментарий, если Вы скачали Хэллоуин 6: Проклятие Майкла Майерса через торрент бесплатно! Внесите свою лепту в развитие PiratBit!
    Комментировать посты могут только пользователи прошедшие не сложную регистрацию
    Показать сообщения:    

    Хэллоуин 6: Проклятие Майкла Майерса через торрент
    Скачать бесплатно Хэллоуин 6: Проклятие Майкла Майерса
    Хэллоуин 6: Проклятие Майкла Майерса скачать торрент
    Хэллоуин 6: Проклятие Майкла Майерса смотреть онлайн
    Cкачать фильм Хэллоуин 6: Проклятие Майкла Майерса бесплатно
    Хэллоуин 6: Проклятие Майкла Майерса скачать торрент в хорошем качестве
    Хэллоуин 6: Проклятие Майкла Майерса смотреть онлайн бесплатно в хорошем качестве


    Вы не можете начинать темы
    Вы не можете отвечать на сообщения
    Вы не можете редактировать свои сообщения
    Вы не можете удалять свои сообщения
    Вы не можете голосовать в опросах
    Вы не можете прикреплять файлы к сообщениям
    Вы можете скачивать файлы