Anonymous, добрый день, присоединяйтесь к нам в Telegram!, здесь всегда актуальный адрес сайта, оперативная поддержка и многое другое!

>

5.6

iTunes

7.4

iTunes

5.7

MVO

1

7.7

1 сезон

6.8

iTunes

7.3

1 сезон

13

6.7

1 сезон

8.3

RePack

30

ULTIMATE

pack

9.9

Лицензия

ВАЖНО

ИГРА 18+

pack

7.3

RePack

MK11

7.7

RePack

jed

7.8

RePack

fifa19

8.5

RePack

RDR2

RePack

NEED FOR SPEED™ PAYBACK

4 сезон

9 сезон

Бесстыжие 9 сезон

Все сериалы

все сериалы на PB.wtf

RePack

FAR CRY 5

Anonymous, добрый день, мы катастрофически не успеваем собрать деньги на оплату серверов, помогите нам пожалуйста 5,10,15р., для нас важна любая помощь . В качестве благодарности мы отключим Вам всю рекламу на сайте (укажите свой ник в строку Ваше имя)!

×
  
Magnet ссылка

Физрук / Сезон 4 / Серии 1-16 из 16 (Игорь Волошин) [2017, Комедия, WEB-DL 720p] pb.wtf

Физрук через торрент pb.wtf

Размер: 9.53 GB | Добавлен: 3 года 10 мес. назад | Торрент скачан:185 раз
Смотреть онлайн Физрук | Скачать    Ребята, помогите собрать деньги на оплату серверов!!!

09-10-2017 18:41 Физрук Скачать торрент  

Физрук
Год выпуска: 2017
Страна: Россия
Производство: Кинокомпания «Good Story Media»
Жанр: Комедия
Продолжительность: 16 ~ 00:24:00
Перевод: Не требуется
Субтитры: Нет
Реклама: Отсутствует

Режиссер: Игорь Волошин

rating

В ролях:

Дмитрий Нагиев, Александр Гордон (II), Полина Гренц, Анастасия Панина, Владимир Сычёв, Даниил Вахрушев, Андрей Крыжний, Артур Сопельник, Оксана Сидоренко, Карина Мишулина, Роман Индык, Елена Муравьёва, Евгений Кулаков, Виктория Клинкова, Екатерина Мельник, Ян Цапник, Екатерина Айсина, Наталья Коренная, Варвара Богданова, Мария Киселёва (II), Иван Мудров, Дмитрий Гогу, Владимир Жеребцов, Владимир Епископосян, Сергей Серов, Сергей Журавлёв, Любовь Германова, Борис Клюев, Дмитрий Власкин, Екатерина Шукшина

Описание:

Железногорск, классическая русская провинция, не богатая, но уютная и знакомая. Здесь и коррумпированные чиновники, и низкие зарплаты, и плохие дороги… Другими словами — привычный набор наших общероссийских проблем, одна из которых — противостояние драматического театра и местной администрации, в лице худрука Эрнеста Шиловского и зам мэра Горыжникова. Шиловский весь в долгах, а местные власти претендуют на здание театра, чтобы перестроить его под торговый центр.Фома знакомится с отцом — немного странным, совершенно непохожим на него человеком, и принимает Эрнеста Петровича со всеми его недостатками и проблемами. А раз так, то Фома остается в Железногорске, и будет спасать местный театр, а заодно наведет в городе свой порядок. Физрук теперь худрук.

Качество: WEB-DL 720p
Формат: MKV
Видео кодек: H.264
Аудио кодек: AC3

Видео: 1280x720 (16:9), 25 fps, MPEG-4 AVC ~3 500 kbps avg, 0.151 bit/pixel
Аудио: 48 KHz, AC3, 2 ch, ~192.00 kbps avg
скриншот   скриншот   скриншот   скриншот  

Общее
Уникальный идентификатор : 184843050654707449860360557727811168355 (0x8B0F7A04366B3B48934FA5F474C4E863)
Полное имя : D:\Fizruk.2017.S04.WEB-DL(720p).OlLanDGroup\Fizruk.2017.S04.E01.WEB-DL(720p).OlLanDGroup.mkv
Формат : Matroska
Версия формата : Version 2
Размер файла : 658 Мбайт
Продолжительность : 24 м. 19 с.
Общий поток : 3784 Кбит/сек
Дата кодирования : UTC 2017-10-09 17:34:58
Программа кодирования : mkvmerge v7.8.0 ('River Man') 32bit built on Apr 3 2015 12:11:22
Библиотека кодирования : libebml v1.3.1 + libmatroska v1.4.2

Видео
Идентификатор : 1
Формат : AVC
Формат/Информация : Advanced Video Codec
Профиль формата : High@L3.1
Параметр CABAC формата : Да
Параметр ReFrames формата : 1 кадр
Параметр GOP формата : M=1, N=12
Идентификатор кодека : V_MPEG4/ISO/AVC
Продолжительность : 24 м. 19 с.
Битрейт : 3517 Кбит/сек
Ширина : 1280 пикселей
Высота : 720 пикселей
Соотношение сторон : 16:9
Режим частоты кадров : Постоянный
Частота кадров : 25,000 кадров/сек
Стандарт вещания : Component
Цветовое пространство : YUV
Субдискретизация насыщенности : 4:2:0
Битовая глубина : 8 бит
Тип развёртки : Прогрессивная
Бит/(Пиксели*Кадры) : 0.153
Размер потока : 612 Мбайт (93%)
Default : Да
Forced : Нет
Цветовой диапазон : Limited

Аудио
Идентификатор : 2
Формат : AC-3
Формат/Информация : Audio Coding 3
Расширение режима : CM (complete main)
Параметр Endianness формата : Big
Идентификатор кодека : A_AC3
Продолжительность : 24 м. 19 с.
Вид битрейта : Постоянный
Битрейт : 192 Кбит/сек
Каналы : 2 канала
Расположение каналов : Front: L R
Частота : 48,0 КГц
Частота кадров : 31,250 кадров/сек (1536 spf)
Метод сжатия : С потерями
Размер потока : 33,4 Мбайт (5%)
Default : Да
Forced : Нет

Когда раздача ведётся путём добавления новых серий, при каждом добавлении создётся новый торрент. Чтобы начать докачку новой серии, пользователям необходимо сделать следующее:
(1) остановить скачивание,
(2) удалить старый торрент у себя из клиента (старые серии удалять не надо),
(3) скачать новый торрент и запустить его у себя в клиенте вместо старого, при этом указать клиенту путь в старую папку, куда и должно происходить скачивание новых серий.
Ваш клиент при этом должен произвести хеширование (проверку) старой папки (если не производит сам - помогите ему сделать это), и будет докачивать только те серии, которых у вас ещё нет. Старые серии при этом не удаляются, а продолжают раздаваться!
Eсли вы уже удалили старые серии, то предотвратить повторную закачку старых серий можно, отжав галочку в соответсвующих местах при запуске нового торрента. По возможности, желательно не удалять старые серии как можно дольше, чтобы релизёр не столько продолжал раздавать старые серии, а смог сконцентрироваться на новых.
pb.wtf



Скачать Физрук через торрент http://s010.radikal.ru/i314/1710/bf/15cb978eea12.jpg Скачать, смотреть онлайн Физрук бесплантно в хорошем качестве Описание: Железногорск, классическая русская провинция, не богатая, но уютная и знакомая. Здесь и коррумпированные чиновники, и низкие ... 10 10 19
Торрент: Зарегистрирован [2017-11-17 14:20] · скачан: 185 раз
Статус: √ проверено
Размер: 9.53 GB
Как cкачать? Как скачать Физрук через торрент | UTorrent

% Раздел Тема Автор DL S | L
TNT serials [ 17.98 GB ] Физрук / Сезон: 4 / Серии 1-16 из 16 [2017 HDTV 1080p] R.G.Generalfilm White Smoke Скачать
1 | 0
TNT serials [ 4.91 GB ] Физрук / Сезон: 4 / Серии 1-16 из 16 [2017 Россия HDTVRip] + [Фильм о сериале] GEKADOL Скачать
1 | 0
TNT serials [ 19.24 GB ] Физрук / Сезон 4 / Серии 1-16 из 16 [2017 HDTV 1080i] bober100 Скачать
1 | 0
TNT serials [ 4.68 GB ] Физрук / Сезон 4 / Серии 1-16 из 16 [2017 WEB-DLRip] bober100 Скачать
2 | 0
TNT serials [ 4.23 GB ] Физрук / Сезон: 4 / Серии: 1-16 из 16 [2017 SATRip-AVC] aleksan55 Скачать
1 | 0


Последний раз редактировалось: bober100 (2017-11-02 05:35), всего редактировалось 7 раз(а)

28-11-2019 20:33  

Отключить всю рекламу на сайте

12-10-2017 06:54 Физрук Скачать торрент  

Блин, уже 4 серия и ничего интересного пока нет, где псих и все остальные...сезон походу испортилиpb.wtf



02-11-2017 16:12 Физрук Скачать торрент  

Ну да,в описании всех актёров перечислили,даже всякую мелкую шваль(после фамилии Нагиев-КТО все эти люди?!?),а гениального Актёра Сухорукова-как то подзабыли?)))pb.wtf



    Дорогой пользователь! Огромная просьба, поблагодарите релизера, оцените раздачу и оставьте свои комментарий, если Вы скачали Физрук через торрент бесплатно!
    Комментировать посты могут только пользователи прошедшие не сложную регистрацию
    Показать сообщения:    

    Физрук через торрент
    Скачать бесплатно Физрук
    Физрук скачать торрент
    Физрук смотреть онлайн
    Cкачать фильм Физрук бесплатно
    Физрук скачать торрент в хорошем качестве
    Физрук смотреть онлайн бесплатно в хорошем качестве


    Вы не можете начинать темы
    Вы не можете отвечать на сообщения
    Вы не можете редактировать свои сообщения
    Вы не можете удалять свои сообщения
    Вы не можете голосовать в опросах
    Вы не можете прикреплять файлы к сообщениям
    Вы можете скачивать файлы