Ссылка на приватное зеркало нашего сайта всего за 1$. Внимание количество ограничено!!!

2 сезон

iTunes

iTunes

1

iTunes

iTunes

iTunes

WEBRip

iTunes

30
pack

Новость дня

ВАЖНО

!!Акция!!

Alien_RageХит недели

RePack

Horizon Zero Dawn

ИГРА 18+

pack

RePack

jed

!!Акция!!

Alien_Rage

RePack

fifa19

RePack

Assassins Creed: Odyssey

RePack

NEED FOR SPEED™ PAYBACK

4 сезон

9 сезон

Бесстыжие 9 сезон

Все сериалы

все сериалы на PB.wtf

RePack

FAR CRY 5
  

Один доллар / 1 Buck / One Buck (Фабьен Дафилс) [2017, триллер, драма, BDRip 720p] MVO [Синема УС] pb.wtf

Один доллар через торрент pb.wtf

Размер: 3.97 GB | Добавлен: 2 года 10 мес. назад | Торрент скачан:359 раз
Скачать  

17-11-2017 16:18 Один доллар Скачать торрент  

Один доллар / 1 Buck / One BuckГод выпуска: 2017
Страна: США
Жанр: триллер, драма
Продолжительность: 01:30:03
Перевод: Любительский (многоголосый) | Синема УС
Субтитры: отсутствуют

Режиссер: Фабьен Дафилс

rating

В ролях:

Джон Фриман, Кэти Райан, Касси Колвин, Уилл Грин, Ривер Фот, Даррен Кендрик, Питер Тахо, Кассандра Канаар, Линдсей Кастилло

Описание:

Перемещаясь из одного кармана в другой, от человека к человеку, однодолларовая купюра показывает жизнь разных людей в Луизиане...

Качество: BDRip 720p
Формат: MKV
Видео кодек: H.264
Аудио кодек: AC3

Видео: 5862 Kбит/с, 1280x570
Аудио#1: Русский, (AC3, 2 ch, 448 Кбит/с)
скриншот   скриншот   скриншот  

Общее
Уникальный идентификатор : 191450644587243502306938307058508141319 (0x90080D8CB534128CBCF17511CEE69307)
Полное имя : D:\1.Buck.2017.P.BDRip.72Op_KOSHARA.mkv
Формат : Matroska
Версия формата : Version 2
Размер файла : 3,97 Гбайт
Продолжительность : 1 ч. 30 м.
Режим общего битрейта : Переменный
Общий поток : 6312 Кбит/сек
Дата кодирования : UTC 2017-11-17 02:15:05
Программа кодирования : mkvmerge v8.3.0 ('Over the Horizon') 64bit
Библиотека кодирования : libebml v1.3.1 + libmatroska v1.4.2

Видео
Идентификатор : 1
Формат : AVC
Формат/Информация : Advanced Video Codec
Профиль формата : High@L4.1
Параметр CABAC формата : Да
Параметр ReFrames формата : 11 кадров
Идентификатор кодека : V_MPEG4/ISO/AVC
Продолжительность : 1 ч. 30 м.
Вид битрейта : Переменный
Битрейт : 5862 Кбит/сек
Максимальный битрейт : 6400 Кбит/сек
Ширина : 1280 пикселей
Высота : 570 пикселей
Соотношение сторон : 2,25:1
Режим частоты кадров : Постоянный
Частота кадров : 23,976 (24000/1001) кадра/сек
Стандарт вещания : Component
Цветовое пространство : YUV
Субдискретизация насыщенности : 4:2:0
Битовая глубина : 8 бит
Тип развёртки : Прогрессивная
Бит/(Пиксели*Кадры) : 0.335
Размер потока : 3,69 Гбайт (93%)
Default : Да
Forced : Нет
Цветовой диапазон : Limited
Основные цвета : BT.709
Характеристики трансфера : BT.709
Коэффициенты матрицы : BT.709

Аудио
Идентификатор : 2
Формат : AC-3
Формат/Информация : Audio Coding 3
Расширение режима : CM (complete main)
Параметр Endianness формата : Big
Идентификатор кодека : A_AC3
Продолжительность : 1 ч. 30 м.
Вид битрейта : Постоянный
Битрейт : 448 Кбит/сек
Каналы : 2 канала
Расположение каналов : Front: L R
Частота : 48,0 КГц
Частота кадров : 31,250 кадров/сек (1536 spf)
Метод сжатия : С потерями
Размер потока : 289 Мбайт (7%)
Default : Да
Forced : Нет

pb.wtf



Скачать Один доллар через торрент http://s019.radikal.ru/i638/1711/78/83d94b0bada5.png Скачать фильм Один доллар через торрент бесплантно в хорошем качестве Описание: Перемещаясь из одного кармана в другой, от человека к человеку, однодолларовая купюра показывает жизнь разных людей в ... 9.3 10 12
Торрент: Зарегистрирован [2017-11-17 16:18] · скачан: 359 раз
Статус: # сомнительно
Размер: 3.97 GB
Как cкачать? Как скачать Один доллар через торрент | qTorrent

% Раздел Тема Автор DL S | L
T Фильмы (мультфильмы) cо спонсором показа (Новинки AVI/MKV) [ 1.37 GB ] Один доллар / 1 Buck / One Buck [2017 HDRip] MVO [Синема УС] bober100 Скачать
1 | 0

28-11-2019 20:33  

Отключить всю рекламу на сайте

    Дорогой пользователь! Огромная просьба, поблагодарите релизера, оцените раздачу и оставьте свои комментарий, если Вы скачали Один доллар через торрент бесплатно! Внесите свою лепту в развитие PiratBit!
    Комментировать посты могут только пользователи прошедшие не сложную регистрацию
    Показать сообщения:    

    Один доллар через торрент
    Скачать бесплатно Один доллар
    Один доллар скачать торрент
    Один доллар смотреть онлайн
    Cкачать фильм Один доллар бесплатно
    Один доллар скачать торрент в хорошем качестве
    Один доллар смотреть онлайн бесплатно в хорошем качестве


    Вы не можете начинать темы
    Вы не можете отвечать на сообщения
    Вы не можете редактировать свои сообщения
    Вы не можете удалять свои сообщения
    Вы не можете голосовать в опросах
    Вы не можете прикреплять файлы к сообщениям
    Вы можете скачивать файлы